<?xml version="1.0" standalone="no"?>
<!DOCTYPE svg PUBLIC "-//W3C//DTD SVG 1.1//EN" "http://www.w3.org/Graphics/SVG/1.1/DTD/svg11.dtd" >
<svg xmlns="http://www.w3.org/2000/svg" xmlns:xlink="http://www.w3.org/1999/xlink" version="1.1">
<metadata>
Created by FontForge 20201107 at Fri Jul 17 04:00:24 2015
 By 
Copyright (c) 2014 Indian Type Foundry (info@indiantypefoundry.com)
</metadata>
<defs>
<font id="Kalam-Regular" horiz-adv-x="268" >
  <font-face 
    font-family="Kalam"
    font-weight="400"
    font-stretch="normal"
    units-per-em="1000"
    panose-1="2 0 0 0 0 0 0 0 0 0"
    ascent="800"
    descent="-200"
    x-height="511"
    cap-height="718"
    bbox="-588 -471 2248 1031"
    underline-thickness="50"
    underline-position="-150"
    unicode-range="U+000D-F0402"
  />
<missing-glyph horiz-adv-x="752" 
d="M236 642v-583h280v583h-280zM173 0v701h406v-701h-406z" />
    <glyph glyph-name="uniFB01" unicode="fi" horiz-adv-x="528" 
d="M115 13q-11 0 -27 18.5t-16 31.5t11 51q48 161 70 262q-50 -9 -64 -9t-30 15t-16 31.5t35.5 26.5t93.5 20q4 20 12 64q24 141 64 200.5t111 59.5q53 0 111 -48.5t58 -98t-25 -49.5q-18 0 -42.5 29.5t-51 59t-48.5 29.5q-51 0 -97 -208l-6 -26q125 16 189.5 16t64.5 -49
q0 -27 -45 -169.5t-61 -198t-42 -55.5q-15 0 -24.5 13.5t-9.5 31t17 83t40 150t32 123.5q-44 -2 -181 -26q-69 -288 -97 -347q-15 -31 -26 -31z" />
    <glyph glyph-name="uniFB02" unicode="fl" horiz-adv-x="543" 
d="M222.5 746q35.5 38 82 38t70 -24.5t23.5 -60.5t-24 -36q-11 0 -24.5 21.5t-34.5 21.5t-34.5 -32t-23.5 -98.5t-15 -93.5q54 9 88.5 20.5t63.5 33.5q57 42 57 145t25 103q21 0 42 -21t21 -52q0 -78 -28.5 -245t-68.5 -309t-67 -142q-16 0 -29.5 17t-13.5 35t18 77
q60 204 78 330q-60 -52 -202 -75q-69 -351 -130 -367q-14 -3 -19 10q-7 3 -13 12t-4 20.5t28.5 119.5t45.5 193q-14 -1 -34.5 -1t-36.5 16.5t-16 29.5q0 24 70 31l34 5q16 83 26 161.5t45.5 116.5z" />
    <glyph glyph-name=".notdef" horiz-adv-x="752" 
d="M236 642v-583h280v583h-280zM173 0v701h406v-701h-406z" />
    <glyph glyph-name="uni0000" horiz-adv-x="0" 
 />
    <glyph glyph-name="uni000D" unicode="&#xd;" horiz-adv-x="401" 
 />
    <glyph glyph-name="space" unicode=" " horiz-adv-x="401" 
 />
    <glyph glyph-name="exclam" unicode="!" horiz-adv-x="371" 
d="M119 143q17 0 41 -48.5t24 -72.5q0 -7 -10 -16t-19 -9q-25 0 -56 31.5t-31 52t17 41.5t34 21zM214 810q19 0 52 -24t33 -38q0 -85 -43.5 -299t-69.5 -214q-16 0 -30 16.5t-14 34.5q-1 6 12.5 72t28.5 185.5t15 240.5q0 26 16 26z" />
    <glyph glyph-name="quotedbl" unicode="&#x22;" horiz-adv-x="331" 
d="M261 846q11 0 31.5 -16.5t20.5 -26.5q0 -53 -15 -151.5t-35 -98.5q-10 0 -22 12.5t-12 20t9 91.5t9 150q0 19 14 19zM78 827q0 19 12 19t33 -16.5t21 -26.5q0 -52 -15.5 -151t-34.5 -99q-11 0 -22.5 12.5t-11.5 20t9 91.5t9 150z" />
    <glyph glyph-name="numbersign" unicode="#" horiz-adv-x="656" 
d="M146 147q-49 -7 -59 -7t-21.5 17t-11.5 32q0 25 114 44q42 169 54 225q-63 -11 -77 -11t-25 17t-11 32q0 28 131 47q20 103 20 137.5t3.5 41t17.5 6.5t40 -24t26 -53t-14 -96q89 8 133 10q16 85 16 117t3.5 39t18 7t40 -24t25.5 -51t-11 -84q18 1 43 1q63 0 63 -29
q0 -25 -121 -41q-21 -90 -60 -238q26 1 63.5 1t50 -7t12.5 -22t-33 -24.5t-113 -19.5l-16 -61q-36 -137 -64 -137q-13 0 -22.5 17.5t-9.5 37.5q-3 14 26 132q-37 -5 -71 -9q-51 -6 -74 -10q-37 -140 -54 -161q-18 -18 -37 13q-12 19 -12 45q-2 6 17 90zM451 488
q-83 -10 -136 -17q-13 -55 -59 -226q65 7 141 12q37 149 54 231z" />
    <glyph glyph-name="dollar" unicode="$" horiz-adv-x="534" 
d="M441 678q29 0 47 -28.5t18 -56.5q0 -16 -14 -16q-6 0 -21 4.5t-29 4.5t-44 -4q-40 -128 -66 -220q70 -50 110 -93t40 -90q1 -72 -77.5 -120t-176.5 -53q-27 -77 -45 -77q-10 0 -16 9q-11 18 2 72q-62 13 -104 58t-42 82t21 37q11 0 32 -22t50.5 -45.5t62.5 -26.5
q8 32 63 221q-66 46 -102 81.5t-36 67t8.5 60t20.5 40.5q63 63 210 102q20 62 35 88.5t34.5 26t19.5 -35.5q0 -24 -14 -66h13zM354.5 127.5q38.5 22.5 38.5 55.5t-86 94q-30 -107 -51 -180q60 8 98.5 30.5zM198 480q0 -24 78 -79q8 28 46 162q-53 -18 -88.5 -41t-35.5 -42z
" />
    <glyph glyph-name="percent" unicode="%" horiz-adv-x="890" 
d="M697 403q48 0 80.5 -50.5t32.5 -112.5q0 -86 -61 -158t-131 -72q-42 0 -73.5 43.5t-31.5 96.5q0 93 58.5 173t125.5 80zM633 89q29 0 64 45.5t35 92t-12.5 72.5t-28.5 26q-29 0 -64 -55.5t-35 -112.5q0 -28 11 -48t30 -20zM628.5 732q50.5 28 62 28t27.5 -27t13.5 -49
t-35 -71t-107.5 -149.5t-182 -252.5t-137 -189t-40.5 -35.5t-21 17t-9.5 27.5t20 43t61.5 92.5t83.5 119.5q82 116 244 347q-96 -57 -186 -50q-11 0 -35 6q7 -31 7 -55q0 -86 -61 -158.5t-131 -72.5q-43 0 -74.5 43.5t-31.5 96.5q0 93 58.5 173t126.5 80q23 0 44 -12
q42 -26 82.5 -29t105.5 23t115.5 54zM216 382q29 0 64.5 45.5t35.5 92t-12.5 72.5t-28.5 26q-29 0 -64 -55.5t-35 -112.5q0 -27 11 -47.5t29 -20.5z" />
    <glyph glyph-name="ampersand" unicode="&#x26;" horiz-adv-x="704" 
d="M569 91q49 0 67 -5t18 -19q0 -47 -96.5 -47t-190.5 87q-160 -98 -237 -98q-39 0 -77 37.5t-38 79t176 184.5q5 5 8 7t7.5 6t8.5 7q-36 88 -36 163.5t55 131.5t139 56q64 0 91.5 -38.5t27.5 -85.5q0 -89 -183 -247q26 -56 62 -103q41 28 107 76q129 93 142 93q31 0 31 -33
q0 -19 -66 -77t-156 -119q67 -56 140 -56zM291.5 570q-24.5 -35 -24.5 -83.5t15 -100.5q121 107 121 163q0 24 -12.5 40t-37.5 16q-37 0 -61.5 -35zM103 111.5q0 -10.5 8 -17.5t20 -7q52 0 179 81q-31 38 -61 91q-122 -102 -134 -119.5t-12 -28z" />
    <glyph glyph-name="quotesingle" unicode="'" horiz-adv-x="145" 
d="M84 827q0 19 12.5 19t35 -16.5t22.5 -26.5q0 -46 -20 -150.5t-39 -99.5q-10 0 -22 13t-12 20t11.5 92t11.5 149z" />
    <glyph glyph-name="parenleft" unicode="(" horiz-adv-x="485" 
d="M535.5 860.5q15.5 -14.5 15.5 -29t-28.5 -38.5t-70.5 -54t-92 -78t-92 -102t-70.5 -133t-28.5 -152.5t20.5 -123t51 -79.5t66.5 -54.5t67 -38.5q71 -34 71 -55.5t-29 -21.5q-48 0 -104 24.5t-109 68.5t-88 117.5t-35 168t37 193t91 169t114 125t108.5 81.5t69 27
t36 -14.5z" />
    <glyph glyph-name="parenright" unicode=")" horiz-adv-x="504" 
d="M426 571q0 -96 -27.5 -188.5t-70.5 -162t-94.5 -129t-100.5 -97.5q-104 -81 -142 -81q-23 0 -23 17q0 18 94 100q93 80 176 202q41 60 68 140.5t27 152t-16.5 116.5t-40 70t-47.5 43t-40.5 33.5t-16.5 30.5q0 43 56 43q67 0 132.5 -86t65.5 -204z" />
    <glyph glyph-name="asterisk" unicode="*" horiz-adv-x="357" 
d="M381 726q0 -6 -38 -27.5t-72 -35.5q13 -11 36.5 -24.5t38.5 -22.5t15 -14.5t-7.5 -11.5t-16.5 -6t-35 16t-49 36q-4 -32 -14.5 -69.5t-18.5 -37.5t-15.5 7.5t-7.5 13.5t4.5 21.5t11 35.5t8.5 31q-16 -15 -51.5 -35t-44 -20t-16.5 7.5t-8 15.5q0 5 18 13t47.5 21t46.5 24
q-29 11 -66.5 40.5t-37.5 41.5t10 12q48 0 57 -19q4 -8 21.5 -27t29.5 -25v91q0 15 13 15q10 0 24.5 -13t14.5 -21.5t-18 -72.5q16 10 37 27.5t34 28t20.5 10.5t18 -8.5t10.5 -17.5z" />
    <glyph glyph-name="plus" unicode="+" horiz-adv-x="600" 
d="M606 362q0 -44 -252 -69q-37 -179 -44 -201t-18 -22q-14 0 -30 19.5t-16 35t3 33t9.5 54t12.5 74.5q-86 -6 -154 -6q-24 0 -43 20t-19 41t28 21q148 0 199 4q9 75 18 181q1 30 20 30t47.5 -28t28.5 -48.5t-24 -128.5q142 12 165 12q69 0 69 -22z" />
    <glyph glyph-name="comma" unicode="," horiz-adv-x="228" 
d="M174 26q0 -63 -54 -132.5t-93 -69.5q-20 0 -20 14q0 11 21 36q63 75 63 125q0 16 -12.5 26.5t-25.5 19.5t-13 22.5t17 34t36 20.5q32 0 56.5 -29.5t24.5 -66.5z" />
    <glyph glyph-name="hyphen" unicode="-" horiz-adv-x="459" 
d="M422 328q0 -16 -32.5 -26t-157 -35t-136 -25t-27.5 17t-16 31q0 22 113 42.5t196 20.5q60 0 60 -25z" />
    <glyph glyph-name="period" unicode="." horiz-adv-x="237" 
d="M145 -6q-25 0 -57 32.5t-32 54t17.5 43t36 21.5t43 -49t24.5 -74q0 -8 -11 -18t-21 -10z" />
    <glyph glyph-name="slash" unicode="/" horiz-adv-x="354" 
d="M106.5 -4q-33.5 -73 -45 -73t-29 21.5t-17.5 35.5q0 55 316 787q1 3 3 7.5t3 7t2.5 5.5t3 4t3.5 3q3 2 12 2t31.5 -30t22.5 -52.5t-25.5 -82t-75 -163t-110.5 -251.5t-94.5 -221z" />
    <glyph glyph-name="zero" unicode="0" horiz-adv-x="500" 
d="M381 488q0 157 -46 157q-21 0 -53.5 -41.5t-63 -103.5t-52 -141.5t-21.5 -146.5q0 -115 61 -115q29 0 70.5 64t73 158t31.5 169zM330 95.5q-64 -77.5 -125.5 -77.5t-107 56.5t-45.5 126.5q0 121 44.5 245t112 202.5t130.5 78.5t97.5 -59.5t34.5 -166t-38.5 -217.5
t-102.5 -188.5z" />
    <glyph glyph-name="one" unicode="1" horiz-adv-x="314" 
d="M271 651q0 -107 -51 -308q-11 -40 -25 -99t-23 -94.5t-20 -71.5q-20 -71 -39 -71q-14 0 -29.5 20t-15.5 41.5t21.5 103.5t48.5 224t37 299q3 31 23 31q22 0 47.5 -28t25.5 -47z" />
    <glyph glyph-name="two" unicode="2" horiz-adv-x="581" 
d="M367.5 135q58.5 8 86 8t42 -4.5t14.5 -18.5q0 -28 -150.5 -63.5t-220.5 -35.5q-31 0 -64.5 27.5t-33.5 57.5q0 24 96 96q90 66 177 154q41 42 68.5 92.5t27.5 93t-19 66.5t-52 24t-62 -20t-47 -39.5t-23 -19.5q-17 0 -40 15t-23 30q0 37 61.5 82t131.5 45t116.5 -49.5
t46.5 -122.5q0 -216 -370 -453q24 3 101.5 15t136 20z" />
    <glyph glyph-name="three" unicode="3" horiz-adv-x="571" 
d="M473 324q54 -33 54 -87.5t-63.5 -107.5t-154 -83t-183 -30t-92.5 34q0 9 59.5 23.5t130.5 31t130.5 53t59.5 84.5q0 26 -36 42.5t-80 23.5q-116 17 -116 40q0 8 3 12q8 14 51 39t87.5 49t81.5 63t37 79q0 47 -51 47q-41 0 -104 -32.5t-71.5 -32.5t-31.5 21.5t-23 32.5
q0 30 81.5 62t144.5 32t106.5 -43t43.5 -98.5t-63 -113t-146 -96.5q91 -12 145 -45z" />
    <glyph glyph-name="four" unicode="4" horiz-adv-x="551" 
d="M441 532q16 0 42 -23.5t26 -43.5q0 -90 -58 -283.5t-91 -193.5q-11 0 -21.5 14.5t-10.5 31t9 47.5t25.5 82t27.5 95q-95 -43 -181 -43q-58 0 -97.5 34.5t-39.5 95.5q0 44 33.5 111.5t76.5 125t85 100t58.5 42.5t32 -12t15.5 -26.5t-53 -77t-106 -138.5t-53 -121
q0 -55 56 -55q48 0 118.5 26t72.5 27q12 81 12 153q0 32 21 32z" />
    <glyph glyph-name="five" unicode="5" horiz-adv-x="537" 
d="M444 716q146 0 146 -31q0 -22 -172 -49q-76 -12 -95.5 -16.5t-46 -53t-26.5 -70t21 -45t51.5 -46t61.5 -46.5q72 -57 72 -111q0 -84 -80 -156t-168 -72q-69 0 -124 47t-55 93q0 29 16 29q6 0 29 -23q68 -68 118.5 -68t110 47t59.5 94q0 43 -74 94q-30 21 -60.5 43.5
t-52 53.5t-21.5 71.5t46 115t76 81.5q62 18 168 18z" />
    <glyph glyph-name="six" unicode="6" horiz-adv-x="556" 
d="M491 257q0 -84 -97 -160.5t-203 -76.5q-63 0 -103.5 42.5t-40.5 115t47.5 173.5t108.5 180t117.5 134t77 55t40.5 -10.5t20 -21t-34 -46.5q-135 -143 -191 -224q111 -10 184.5 -58.5t73.5 -102.5zM200 101q66 0 129.5 47t63.5 101q0 38 -53.5 70t-142.5 43
q-61 -107 -61 -193q0 -34 17.5 -51t46.5 -17z" />
    <glyph glyph-name="seven" unicode="7" horiz-adv-x="461" 
d="M181.5 707q82.5 12 162 12t100.5 -14q17 -13 29.5 -41.5t12.5 -46.5t-9.5 -40.5t-27.5 -54t-35.5 -60t-41.5 -67t-46 -76t-73.5 -132.5t-76 -134.5t-37.5 -39.5t-25 18.5t-12 36.5q0 33 74 158.5t148.5 247t74.5 142.5q0 18 -33.5 18t-107 -11t-93.5 -11t-43 27.5
t-23 45.5q0 10 82.5 22z" />
    <glyph glyph-name="eight" unicode="8" horiz-adv-x="602" 
d="M562 697q40 -32 40 -85.5t-52 -112t-145 -132.5q93 -88 93 -150q0 -49 -43.5 -95.5t-105 -73t-111.5 -26.5t-98.5 36.5t-48.5 82.5t49 102.5t136 127.5q-145 112 -170 149q-14 20 -14 37.5t5.5 35t14.5 17.5t25 -16.5t29.5 -29.5t44 -38t69.5 -55t60 -48q59 47 89 73
t57.5 59t27.5 55q0 38 -50.5 38t-115.5 -24.5t-79 -24.5t-35.5 15t-21.5 29q0 30 77 58t155 28t118 -32zM408 230q0 28 -66 87q-54 -43 -83 -67.5t-54 -54.5t-25 -48.5t17.5 -33.5t38.5 -15q55 0 113.5 40.5t58.5 91.5z" />
    <glyph glyph-name="nine" unicode="9" horiz-adv-x="488" 
d="M470 509q0 -20 -25.5 -86t-41 -113t-34 -132.5t-30 -129t-24.5 -43.5q-34 0 -34 80t54 255q-73 -56 -128 -56t-96.5 43t-41.5 99t39 127.5t101.5 122t118.5 50.5t86 -37.5t30 -76.5t-7 -61q33 -6 33 -42zM358 524l9 67q0 22 -10.5 36.5t-29.5 14.5q-53 0 -116 -84
t-63 -143q0 -25 17.5 -40t36 -15t30.5 3t24 9.5t21.5 12.5t21 18t18.5 19t18.5 22t16.5 21q19 26 29 41q-23 3 -23 18z" />
    <glyph glyph-name="colon" unicode=":" horiz-adv-x="246" 
d="M202 336q-23 0 -55 41t-32 64.5t14.5 47t28.5 23.5q25 0 48.5 -57t23.5 -79q0 -40 -28 -40zM125 -7q-23 0 -54.5 40t-31.5 64t14 47.5t29 23.5q24 0 47.5 -56.5t23.5 -89.5q0 -11 -8 -20t-20 -9z" />
    <glyph glyph-name="semicolon" unicode=";" horiz-adv-x="306" 
d="M171 8q0 -63 -54 -133t-93 -70q-20 0 -20 15q0 10 21 35q63 75 63 126q0 16 -13 26.5t-25.5 19t-12.5 22t17 34.5t36 21q32 0 56.5 -29.5t24.5 -66.5zM213 336q-23 0 -54.5 41t-31.5 64.5t14.5 47t28.5 23.5q24 0 48 -57t24 -79t-8.5 -31t-20.5 -9z" />
    <glyph glyph-name="less" unicode="&#x3c;" horiz-adv-x="539" 
d="M491 542q21 0 34.5 -16.5t13.5 -26.5t-5 -15q-7 -7 -65.5 -29t-169.5 -76t-111 -75q0 -17 72 -56t144.5 -77t72.5 -53q0 -21 -36.5 -21t-123 35.5t-161.5 83.5t-75 76q0 16 11 40.5t23 34.5q51 43 188.5 109t187.5 66z" />
    <glyph glyph-name="equal" unicode="=" horiz-adv-x="631" 
d="M247 279q190 22 256.5 22t66.5 -25q0 -37 -233 -68q-168 -21 -242 -21q-13 1 -25.5 20.5t-12.5 32.5q0 17 190 39zM244.5 473q154.5 16 253.5 16t99 -31q0 -17 -43.5 -27t-207.5 -29t-218 -19q-13 0 -26 19.5t-13 33.5q1 21 155.5 37z" />
    <glyph glyph-name="greater" unicode="&#x3e;" horiz-adv-x="561" 
d="M132 527q0 16 23 16q68 -1 164 -53t155 -110q32 -32 32 -59q0 -38 -157 -124q-12 -7 -19 -11q-159 -90 -214 -90q-30 0 -30 20.5t80.5 68t161 91t80.5 54.5q0 21 -81 67t-133 61q-19 6 -40.5 31.5t-21.5 37.5z" />
    <glyph glyph-name="question" unicode="?" horiz-adv-x="518" 
d="M222 -3q-24 0 -55.5 31.5t-31.5 52.5t17 41.5t34 20.5t41 -48.5t24 -72.5q0 -7 -10 -16t-19 -9zM258 634l2 -26q0 -12 -12.5 -17.5t-22 -5.5t-28.5 23t-19 39q0 55 49 98t114 43t110.5 -41t45.5 -111q0 -41 -27.5 -86t-61.5 -78q-100 -99 -124.5 -158t-33.5 -67t-16 -8
q-25 0 -25 64q0 41 31.5 88t69 82.5t69 79t31.5 76.5t-21.5 52.5t-52.5 19.5t-54.5 -19t-23.5 -48z" />
    <glyph glyph-name="at" unicode="@" horiz-adv-x="965" 
d="M607 730q140 0 223 -89t83 -228q0 -65 -26.5 -129t-67 -110.5t-89.5 -75t-86 -28.5t-59.5 20.5t-29.5 52.5q-89 -94 -151 -94q-45 0 -89 38.5t-44 80.5t26.5 103.5t66 117t91.5 94.5t97 39t82 -43.5t37 -78.5t-21 -66q15 -17 15 -30t-16.5 -54.5t-16.5 -59.5t8 -29.5
t24.5 -11.5t44 20.5t53.5 54t45 83t19 100.5q0 108 -54.5 175.5t-157.5 67.5t-193.5 -49.5t-152 -126t-98 -168.5t-36.5 -183.5t54.5 -150.5t152.5 -59q114 0 216 36q34 12 43 12q13 0 13 -14q0 -41 -93 -76.5t-178 -35.5q-128 0 -213.5 85.5t-85.5 206.5q0 98 41 203
t112.5 194.5t180 147.5t230.5 58zM559 446q-37 0 -87.5 -53.5t-86 -120.5t-35.5 -106q0 -18 15 -30.5t33 -12.5q45 0 107.5 64.5t82.5 151.5q3 14 17 15v7q-3 36 -15 60.5t-31 24.5z" />
    <glyph glyph-name="A" unicode="A" horiz-adv-x="608" 
d="M564 363q0 -19 -88 -44q8 -104 8 -177q0 -126 -32 -126q-17 0 -27 21t-16 73q-7 96 -15 188q-45 -12 -82 -21.5t-112 -30.5q-88 -230 -104 -230t-34.5 19.5t-18.5 41.5q0 10 57 142h-7q-20 0 -35.5 13t-15.5 32.5t99 51.5q16 36 26 65q23 57 64 156t52 126.5t38.5 47
t53.5 19.5q31 0 55.5 -99t39.5 -245q28 3 49 3q45 0 45 -26zM237 342q71 19 150 32q-18 171 -35 257q-45 -103 -115 -289z" />
    <glyph glyph-name="B" unicode="B" horiz-adv-x="637" 
d="M575 254q0 -59 -61 -114.5t-158 -89t-198 -33.5q-59 0 -105.5 33t-46.5 61.5t17 28.5q4 0 39.5 -21.5t74.5 -22.5q-14 7 -26.5 26t-12.5 36t24 95q74 235 76 361h-8q-18 0 -37 22.5t-19 36.5q0 17 42.5 29.5t102.5 12.5q140 0 216 -38t76 -110q0 -60 -50.5 -109
t-147.5 -79l9 -1q84 -5 138.5 -41t54.5 -83zM447.5 613.5q-33.5 18.5 -81 18.5t-115.5 -12q28 -30 28 -57.5t-35 -165.5q24 15 75 34.5t80.5 34.5t43 26.5t26 30.5t12.5 39q0 33 -33.5 51.5zM488 258q0 30 -69.5 50.5t-138.5 20.5q-27 0 -47 28q-61 -241 -80 -261
q71 2 149 25.5t132 61.5t54 75z" />
    <glyph glyph-name="C" unicode="C" horiz-adv-x="599" 
d="M470 718q26 0 53.5 -33t27.5 -54.5t-7.5 -21.5t-28.5 7.5t-38 7.5q-39 0 -94.5 -40t-105 -99t-84.5 -134.5t-35 -130.5t28.5 -80.5t74.5 -25.5t95 13.5t80 30.5q80 43 88 43q17 0 17 -22.5t-46 -60t-114 -67.5t-122 -30q-70 0 -132 60.5t-62 133.5q0 94 61.5 212.5
t158 204.5t185.5 86z" />
    <glyph glyph-name="D" unicode="D" horiz-adv-x="645" 
d="M151 721q94 0 200.5 -49t183.5 -135.5t77 -179.5q0 -61 -84.5 -143.5t-195.5 -141t-184 -58.5q-19 0 -43.5 32.5t-24.5 66t58 241.5t63 274q-32 13 -51 34t-19 40t20 19zM520 368q0 62 -74 134.5t-172 104.5q5 -18 5 -42.5t-17.5 -91.5t-63.5 -224q-19 -66 -31 -145
q69 9 154.5 60.5t142 110.5t56.5 93z" />
    <glyph glyph-name="E" unicode="E" horiz-adv-x="585" 
d="M208 333q-54 -171 -54 -207q0 -12 7.5 -19.5t19.5 -7.5q115 0 254 37q45 12 52 12q15 0 15 -21q0 -36 -110.5 -74t-213.5 -38q-46 0 -80.5 27t-34.5 68t29.5 140t59.5 211t30 189q0 11 4 23q17 37 218 37t201 -29q0 -20 -43 -27q-36 -7 -95.5 -12.5t-83.5 -8t-116 -18.5
v-3q0 -68 -37 -205q6 -1 40.5 -1t92.5 5t87.5 5t29.5 -14q0 -35 -82 -52t-190 -17z" />
    <glyph glyph-name="F" unicode="F" horiz-adv-x="523" 
d="M197 313h-2q-2 -10 -19.5 -80t-22.5 -91.5t-8.5 -34.5t-7.5 -29.5t-7.5 -26t-6.5 -18.5q-6 -17 -12 -17q-13 0 -34 28.5t-21 46.5t57.5 250t59.5 309q0 15 7 24q10 21 59.5 30t145 9t150 -10t54.5 -28q0 -12 -17 -17t-30 -7.5t-34 -5t-39 -4t-46.5 -4.5t-52.5 -5.5
t-65 -7.5t-53 -6q1 -3 1 -9q0 -47 -39 -216q62 -3 133.5 3t87.5 6q38 0 38 -16q0 -31 -86.5 -52t-189.5 -21z" />
    <glyph glyph-name="G" unicode="G" horiz-adv-x="611" 
d="M461 624q-63 0 -139.5 -69t-130.5 -172.5t-54 -192.5q0 -36 23 -61.5t54 -25.5q48 0 112.5 52.5t119.5 135.5q-56 -15 -83 -15t-46 14.5t-19 27.5q0 16 43 25.5t108 9.5q36 0 58.5 -30.5t22.5 -71t-50 -190.5t-75.5 -150t-25.5 29q0 28 14.5 76t30.5 98.5t26 82.5
q-49 -83 -111 -131.5t-120.5 -48.5t-115.5 54.5t-57 119.5q0 101 64 225t161 212.5t182 88.5q28 0 55 -33.5t27 -54t-11 -20.5q-3 0 -22 7.5t-41 7.5z" />
    <glyph glyph-name="H" unicode="H" horiz-adv-x="670" 
d="M120 17q-12 0 -33 26.5t-21 50.5t44 196q-13 5 -22.5 17.5t-9.5 28.5q0 13 52 29q67 262 67 325q0 17 4.5 23.5t18 6.5t36 -31t22.5 -69.5t-49 -231.5q132 27 259 35q51 208 51 267q0 30 20 30q17 0 40 -31t23 -64.5t-45 -203.5q46 -7 46 -27.5t-62 -33.5
q-32 -118 -43.5 -163.5t-18.5 -72.5t-15 -54q-14 -53 -25 -53q-14 0 -32.5 23.5t-18.5 48.5t60 257q-146 -20 -263 -46q-14 -52 -26.5 -100.5t-19.5 -75.5t-15 -54q-14 -53 -24 -53z" />
    <glyph glyph-name="I" unicode="I" horiz-adv-x="310" 
d="M87.5 43q-19.5 24 -19.5 44t59.5 279.5t60.5 321.5q0 17 4.5 23.5t19 6.5t38 -31t23.5 -66.5t-72 -328.5q-7 -27 -19 -77.5t-19 -77.5t-15 -59q-17 -59 -29 -59t-31.5 24z" />
    <glyph glyph-name="J" unicode="J" horiz-adv-x="468" 
d="M8 165q0 29 18 29q11 0 60 -50q19 -18 46 -33.5t53 -15.5q33 0 60.5 69.5t76.5 248t79 227.5q-44 -7 -123.5 -26t-95.5 -19q-37 0 -37 25q0 34 124.5 69t182.5 35q18 0 31.5 -8t13.5 -23.5t-14 -56.5q-62 -181 -81 -246q-65 -237 -99 -307t-101.5 -70t-130.5 56t-63 96z
" />
    <glyph glyph-name="K" unicode="K" horiz-adv-x="591" 
d="M105 20q-14 0 -32.5 23.5t-18.5 49t65 277.5t65 316q0 18 4 25t18.5 7t34.5 -31t20 -71t-52 -237q91 124 192 228.5t128 104.5q20 0 37.5 -13t17.5 -25.5t-47.5 -56t-127.5 -121.5t-137 -156q0 -41 22 -89q35 -80 144 -133q47 -23 73.5 -39t26.5 -33q0 -26 -39 -26
t-82 16.5t-86 46.5t-78.5 79.5t-48.5 108.5q-31 -55 -58 -145q-33 -106 -40 -106h-1z" />
    <glyph glyph-name="L" unicode="L" horiz-adv-x="546" 
d="M203.5 718q4.5 7 19 7t36.5 -25t22 -53q0 -70 -86 -354q-43 -138 -43 -165t26 -27q113 0 248 37q43 12 51.5 12t11.5 -3.5t3 -13.5q0 -42 -102.5 -79t-208.5 -37q-48 0 -83.5 28t-35.5 66.5t68.5 276.5t68.5 307q0 16 4.5 23z" />
    <glyph glyph-name="M" unicode="M" horiz-adv-x="789" 
d="M189.5 711.5q4.5 6.5 17 6.5t43.5 -27t33 -48q4 -36 38 -127.5t78 -185.5q56 66 141 175.5t126 155.5t59 46t38 -20t20 -38t-4 -41t-13.5 -60.5t-17 -65t-24.5 -85.5t-26 -92.5t-21 -84t-19.5 -81t-15.5 -61.5q-15 -58 -28.5 -58t-26.5 24t-13 64.5t34.5 185.5t74.5 254
q-184 -230 -226.5 -275t-70 -45t-51.5 31q-36 52 -97 246q-17 -105 -37.5 -179.5t-27 -99t-11 -40.5t-10.5 -37.5t-10.5 -35.5t-9.5 -30.5t-8.5 -26.5t-7.5 -19q-8 -17 -12 -17q-12 0 -30 26t-18 50t64.5 276t64.5 316q0 17 4.5 23.5z" />
    <glyph glyph-name="N" unicode="N" horiz-adv-x="677" 
d="M562 680q2 43 20.5 43t40.5 -23t22 -41q0 -82 -25.5 -233t-68 -280t-80.5 -129q-13 0 -29.5 13t-25.5 32q-30 70 -177 444q-30 -116 -66.5 -262.5t-48.5 -186.5t-21 -40q-13 0 -31.5 22.5t-18.5 46.5t65 281.5t67 321.5q0 32 17 32q11 0 30.5 -18.5t28.5 -40.5
q161 -418 204 -512q65 172 87 411q10 110 10 119z" />
    <glyph glyph-name="O" unicode="O" horiz-adv-x="613" 
d="M453 300.5q47 86.5 47 163.5t-29.5 125t-69.5 48t-100 -62t-108 -162.5t-48 -192.5q0 -55 24 -89.5t56 -34.5q50 0 115.5 59t112.5 145.5zM219 17q-66 0 -115.5 65t-49.5 132q0 91 33.5 185t84 164t111.5 114.5t113 44.5q84 0 140 -76.5t56 -172.5t-53 -201.5
t-141.5 -180t-178.5 -74.5z" />
    <glyph glyph-name="P" unicode="P" horiz-adv-x="543" 
d="M559 553q0 -108 -103.5 -183t-273.5 -108q-73 -247 -87 -247t-33 22.5t-19 45t29 119.5q90 299 94 417q-24 22 -24 40q0 25 68 48t130 23q96 0 157.5 -49t61.5 -128zM471 547q0 44 -33.5 72.5t-80.5 28.5t-114 -30q10 -22 10 -41q0 -56 -49 -237q120 32 193.5 88.5
t73.5 118.5z" />
    <glyph glyph-name="Q" unicode="Q" horiz-adv-x="641" 
d="M543.5 643q63.5 -76 63.5 -171.5t-50 -200t-128 -173.5q14 -39 35 -91.5t31 -80t10 -42.5q0 -23 -25 -23q-45 0 -118 191q-61 -32 -125 -32t-122 60t-58 134q0 93 33 187t82.5 162.5t110 112t113.5 43.5q84 0 147.5 -76zM482.5 324.5q33.5 73.5 33.5 144.5t-36 119
t-77 48q-16 0 -35 -8q-23 -32 -23 -97q0 -163 53 -340q51 60 84.5 133.5zM177.5 131q32.5 -35 70.5 -35t86 35q-71 222 -71 346q0 39 7 68q-54 -66 -89.5 -154t-35.5 -170q0 -55 32.5 -90z" />
    <glyph glyph-name="R" unicode="R" horiz-adv-x="584" 
d="M100 16q-15 0 -34 22t-19 44.5t55 216.5t63 295q-13 8 -23 25t-10 30q0 23 68 47.5t150.5 24.5t143 -39.5t60.5 -111.5q0 -49 -27.5 -91.5t-67 -69.5t-78.5 -48t-66.5 -34.5t-27.5 -19.5q0 -22 34.5 -57t48.5 -48t37 -34.5t43.5 -38.5t33 -28t25.5 -23q25 -23 25 -37
q0 -24 -33 -24q-60 0 -171 104.5t-136 177.5q-47 -156 -54 -180.5t-16 -50.5q-16 -52 -24 -52zM251 567q0 -65 -42 -215q17 13 65 38.5t86.5 47t70.5 57.5t32 75q0 62 -108 62q-49 0 -114 -25q10 -22 10 -40z" />
    <glyph glyph-name="S" unicode="S" horiz-adv-x="531" 
d="M468 214q0 -82 -74 -137.5t-169.5 -55.5t-157.5 49.5t-62 93.5q0 30 18 30q16 0 63 -48q18 -17 48.5 -32t64.5 -15q70 0 124.5 36t54.5 78q0 27 -36 69t-79.5 79.5t-79.5 80.5t-36 68t10 53t22 41q39 43 121.5 79t138.5 36q29 0 49 -19t20 -40q0 -10 -21 -16t-63.5 -15.5
t-75.5 -22.5q-115 -44 -115 -85q0 -22 117 -123q45 -39 81.5 -90.5t36.5 -93.5z" />
    <glyph glyph-name="T" unicode="T" horiz-adv-x="535" 
d="M284 632l-171 -8q-16 0 -33 21t-17 41q0 18 57.5 23t252.5 5q101 0 166.5 -22t65.5 -49q0 -19 -33 -19t-92 4t-113 5q3 -10 3 -22q0 -37 -78 -344q-8 -32 -24 -100t-24 -95q-14 -53 -25 -53q-15 0 -33.5 22.5t-18.5 45.5t54 236.5t63 308.5z" />
    <glyph glyph-name="U" unicode="U" horiz-adv-x="598" 
d="M173 712.5q4 6.5 18.5 6.5t38.5 -26.5t24 -62t-40.5 -193.5t-40.5 -214.5t21 -91.5t54 -35t73 38t74.5 99.5t58 150t23.5 178.5q0 42 -4.5 84t-4.5 52q0 21 18 21q23 0 53 -34.5t30 -88.5q0 -154 -45 -289t-121 -215.5t-162 -80.5q-63 0 -109.5 61t-46.5 140t42 248.5
t42 228.5q0 17 4 23.5z" />
    <glyph glyph-name="V" unicode="V" horiz-adv-x="532" 
d="M545 718q16 0 32 -11.5t16 -28t-18.5 -52.5t-63.5 -115.5t-77 -143.5t-60.5 -125.5t-45 -98t-32.5 -69.5q-32 -61 -53 -61q-12 0 -29 19.5t-27 44.5q-27 67 -72.5 310t-45.5 300q0 31 17 31q21 0 43 -21.5t35 -54.5q6 -18 29.5 -199.5t53.5 -295.5q64 181 165 376
t133 195z" />
    <glyph glyph-name="W" unicode="W" horiz-adv-x="782" 
d="M498 719q117 0 177 -93t60 -234t-69.5 -256.5t-160.5 -115.5q-64 0 -94 72t-39 205q-42 -59 -96 -134q-104 -144 -146 -144q-16 0 -37 26t-21 65.5t27 247t27 323.5q0 37 22 37t51.5 -26t29.5 -47.5t-33.5 -211.5t-41.5 -298q61 103 137.5 190.5t109.5 87.5q34 0 47 -150
q5 -56 19.5 -103t39.5 -47q56 0 97.5 90.5t41.5 200.5q0 122 -54 188q-28 35 -61.5 35t-57 23t-23.5 40q0 29 48 29z" />
    <glyph glyph-name="X" unicode="X" horiz-adv-x="624" 
d="M574 715q12 0 32 -21t20 -31.5t-6.5 -16.5t-20.5 -16t-24 -20q-37 -36 -217 -268q27 -44 78 -120.5t73.5 -115t22.5 -54.5t-8 -24.5t-18 -8.5q-25 0 -82.5 71.5t-122.5 178.5q-52 -69 -67.5 -89t-32.5 -42.5t-27.5 -35t-24 -28t-22.5 -24t-19 -16.5q-18 -14 -33.5 -14
t-32.5 13t-17 21t1 10.5t3.5 6t4 5.5t15.5 16q81 88 208 254q-135 243 -135 346q0 27 14 27q29 0 57.5 -14.5t28.5 -33.5q0 -92 90 -251q141 195 187.5 245t74.5 50z" />
    <glyph glyph-name="Y" unicode="Y" horiz-adv-x="575" 
d="M327 373q18 0 65.5 85.5t97 171.5t70.5 86t34 -15t13 -36t-38 -84t-102 -166.5t-128 -224.5t-88 -151t-39 -30q-22 0 -22 36q0 28 28 85q9 17 14 28.5t16 32.5t17 32.5t18.5 36t18.5 35.5q-59 15 -108.5 74.5t-75.5 133t-26 143.5t40 70q16 0 25.5 -31t23.5 -89
t37 -106.5t55 -82.5t54 -34z" />
    <glyph glyph-name="Z" unicode="Z" horiz-adv-x="620" 
d="M534 633q28 -34 28 -66t-41.5 -85.5t-101 -106t-119.5 -102.5t-101.5 -89t-41.5 -51t7 -19t19 -7q53 0 169.5 16.5t150.5 16.5t34 -24q0 -32 -125 -63.5t-252 -31.5q-38 0 -69.5 34.5t-31.5 68t43.5 84t105 102.5t122.5 103q149 123 149 166q0 19 -45.5 31.5t-97 12.5
t-95 -7.5t-53.5 -7.5q-22 0 -43 23t-21 42q-2 18 66 31q35 6 81 6q106 0 196 -30q39 -13 67 -47z" />
    <glyph glyph-name="bracketleft" unicode="[" horiz-adv-x="453" 
d="M426 802q124 0 124 -34q0 -13 -10 -18t-18 -7.5t-22.5 -4.5t-27.5 -3.5t-35 -4.5q-53 -7 -83 -14q1 -3 1 -8q0 -78 -120 -445q-64 -200 -64 -222.5t25 -22.5t81.5 6.5t65.5 6.5q19 0 19 -18q0 -26 -63.5 -52t-109 -26t-80 24.5t-34.5 59t48.5 189.5t96.5 320t48 223
q0 6 1 8v1q1 25 40 33.5t117 8.5z" />
    <glyph glyph-name="backslash" unicode="\" horiz-adv-x="600" 
d="M521 -20q0 -14 -17.5 -35.5t-29 -21.5t-45 73t-94.5 221t-110.5 251.5t-75 163t-25.5 82t22.5 52.5t34.5 30q11 0 17 -12q4 -8 7 -17q316 -732 316 -787z" />
    <glyph glyph-name="bracketright" unicode="]" horiz-adv-x="450" 
d="M313 673l-52 1q-75 0 -89 1q-44 4 -44 22q0 26 51.5 41.5t115.5 15.5q115 0 115 -43v-5q0 -154 -131 -703q-11 -42 -37 -60t-78.5 -18t-110.5 24.5t-58 53.5q0 18 20 18t66 -6t72.5 -6t30.5 22q128 525 128 631q0 7 1 11z" />
    <glyph glyph-name="asciicircum" unicode="^" horiz-adv-x="422" 
d="M376 571q0 -18 -16 -18q-37 0 -132 196q-43 -44 -83 -124q-28 -56 -36.5 -62t-19 -6t-22.5 10t-12 21q0 51 62.5 154t95.5 103q15 0 35.5 -7t28.5 -15.5t13.5 -23t17 -48t40 -102.5t28.5 -78z" />
    <glyph glyph-name="underscore" unicode="_" horiz-adv-x="608" 
d="M553 26q0 -17 -54 -24q-96 -11 -172.5 -11.5t-149 -6t-90 -5.5t-30.5 17.5t-13 35t79 26.5t200 9t186 -12q44 -8 44 -29z" />
    <glyph glyph-name="grave" unicode="`" horiz-adv-x="213" 
d="M11.5 779q-1.5 4 -1.5 16t15 30.5t33 18.5q13 0 38 -26q6 -7 17 -19t18 -19q65 -66 70 -82q2 -5 2 -13.5t-8.5 -17.5t-17.5 -9t-19.5 6.5t-29.5 21.5t-30 23t-24 17t-19 13t-15 10.5t-13.5 10.5t-9 9.5t-6 9.5z" />
    <glyph glyph-name="a" unicode="a" horiz-adv-x="469" 
d="M380 465.5q38 -45.5 38 -82t-25 -74.5q12 -15 12 -26q0 -28 -12.5 -96t-15 -89t-4.5 -33.5t-5 -24.5q-4 -25 -18 -25q-18 0 -29.5 31.5t-13.5 81.5q-89 -113 -165 -113q-46 0 -90.5 39.5t-44.5 81.5q0 60 44 148.5t114 157.5t132 69q45 0 83 -45.5zM343 335q0 93 -37 93
q-39 0 -91 -55.5t-88 -125.5t-36 -111q0 -17 14 -27.5t33 -10.5q47 0 106 63.5t82 154.5q3 15 17 18v1z" />
    <glyph glyph-name="b" unicode="b" horiz-adv-x="525" 
d="M74 15q-14 0 -33 21.5t-19 40.5t31.5 130t63 267.5t31.5 286.5q0 30 22 30q16 0 39 -29.5t23 -57.5q0 -123 -54 -351q119 161 216 161q47 0 79.5 -46t32.5 -109.5t-36.5 -145.5t-98.5 -140.5t-130 -58.5t-134 69l-1 -1q-22 -67 -32 -67zM233 92q65 0 127.5 88.5
t62.5 186.5q0 59 -36 59q-58 0 -129.5 -81t-123.5 -193q47 -60 99 -60z" />
    <glyph glyph-name="c" unicode="c" horiz-adv-x="445" 
d="M83 60.5q-51 45.5 -51 108t42 144.5t108.5 140t129.5 58q41 0 72 -37t31 -65q0 -8 -5 -13.5t-14.5 -5.5t-33.5 18t-43 18q-54 0 -126 -95t-72 -166q0 -31 19.5 -49t63 -18t80 10.5t56.5 21t31 10.5q19 0 19 -19q0 -29 -69.5 -67.5t-128 -38.5t-109.5 45.5z" />
    <glyph glyph-name="d" unicode="d" horiz-adv-x="499" 
d="M459 791q16 0 39.5 -29.5t23.5 -55.5t-25 -147.5t-58 -251.5q-72 -292 -95 -292q-14 0 -30.5 17.5t-16.5 30.5t7 52q-98 -100 -171 -100q-44 0 -79.5 40t-35.5 83q0 62 33.5 147.5t96.5 155.5t134 70t99 -85q51 212 56 335q0 30 22 30zM349 300q0 54 -18.5 91t-44.5 37
q-43 0 -88 -53t-71.5 -121.5t-26.5 -118.5q0 -18 13 -29t31 -11q39 0 105.5 56t96.5 132l3 12v5z" />
    <glyph glyph-name="e" unicode="e" horiz-adv-x="450" 
d="M372.5 258.5q-57.5 -33.5 -130 -33.5t-131.5 16q-14 -44 -14 -78.5t21.5 -53.5t71 -19t102 17.5t57.5 17.5q26 0 26 -20q0 -27 -61 -58.5t-119 -31.5q-78 0 -127 46.5t-49 117.5t38 148.5t98 130.5t119 53t107.5 -56t48.5 -109.5t-57.5 -87zM279 432q-37 0 -77 -38.5
t-68 -95.5q40 -9 91 -9t89 16.5t38 43.5t-24.5 55t-48.5 28z" />
    <glyph glyph-name="f" unicode="f" horiz-adv-x="376" 
d="M103 13q-13 0 -28 19t-15 31t10 47q50 180 68 257q-43 -10 -59 -10t-32 14t-16 31t45 30q58 14 80 18q10 48 15 74q24 138 65 199t111 61q50 0 82 -39.5t32 -93t-28 -53.5q-24 0 -39 54q-5 20 -17 37t-29 17t-31 -15.5t-25 -44.5q-29 -81 -40 -148l-8 -35q37 5 73.5 5
t53 -8t16.5 -20q0 -19 -33 -29t-129 -26q-71 -288 -97 -343q-14 -29 -25 -29z" />
    <glyph glyph-name="g" unicode="g" horiz-adv-x="475" 
d="M427 285q0 -40 -35 -91q-27 -61 -58 -175.5t-52 -163.5q-42 -102 -129 -102q-71 0 -119.5 38.5t-48.5 76.5q0 16 9.5 32t20 16t23.5 -15t24.5 -32.5t35 -32.5t45.5 -15t33 6.5t21 21t17 29t15.5 41t13.5 45.5t14 53.5t15 55.5q-78 -58 -127 -58t-85 39.5t-36 92
t39.5 139.5t106.5 156t131 69q41 0 69 -31q46 -51 46 -145q0 -12 -1 -17q12 -17 12 -33zM105 136q0 -17 11 -27.5t28 -10.5q50 0 118 59.5t96 138.5q-4 13 -7 40t-6 43t-13 32.5t-26 16.5q-39 0 -88 -56t-81 -125t-32 -111z" />
    <glyph glyph-name="h" unicode="h" horiz-adv-x="536" 
d="M149 752q0 39 24 39q19 0 40.5 -30t21.5 -58q0 -65 -32.5 -221.5t-84.5 -312.5q100 181 167.5 261.5t115.5 80.5q26 0 60.5 -45t34.5 -90t-25 -135q-62 -226 -117 -226q-22 0 -22 30t24 101q53 155 53 209q0 18 -9 30t-22 12t-32 -14t-46 -49q-34 -45 -70.5 -101
t-44 -67.5t-26 -41.5t-27.5 -44.5t-22 -31.5q-23 -33 -35 -33t-32 22.5t-20 38t11 58.5q50 192 63 263q52 260 52 355z" />
    <glyph glyph-name="i" unicode="i" horiz-adv-x="238" 
d="M175 691q16 18 32.5 18t39.5 -40.5t23 -67.5q0 -10 -9 -18t-19 -8q-24 0 -53.5 29t-29.5 49t16 38zM154 511q19 0 36 -23t17 -45t-29 -131.5t-73 -245.5q-17 -50 -43 -50q-14 0 -24 11.5t-10 26t7.5 46t22 84t23 85.5t17.5 74.5t14.5 67t12.5 51.5q14 49 29 49z" />
    <glyph glyph-name="j" unicode="j" horiz-adv-x="254" 
d="M-149 -121q43 -55 71 -55t47 30t37 94.5t34 132.5t41.5 180t49.5 201q15 49 29 49q17 0 35 -21.5t18 -46.5q0 -23 -31 -139.5t-55 -209.5t-47 -182q-43 -157 -156 -157q-50 0 -97.5 42t-47.5 72q0 13 10.5 30.5t19.5 17.5q11 0 23 -14.5t19 -23.5zM188 691q16 18 33 18
t39.5 -40.5t22.5 -67.5q0 -10 -9 -18t-18 -8q-24 0 -54 29t-30 49t16 38z" />
    <glyph glyph-name="k" unicode="k" horiz-adv-x="469" 
d="M473 457q0 -9 -89 -94q-33 -32 -60.5 -75.5t-27.5 -79.5t21.5 -66.5t47 -46t47 -30.5t21.5 -25q0 -25 -39.5 -25t-94 44.5t-67.5 99.5q-5 10 -8 19q-68 -92 -98.5 -127.5t-45.5 -35.5t-33 23.5t-18 39t32.5 129t65 272.5t32.5 284q0 16 4.5 22t19.5 6t37 -29.5t22 -57.5
q0 -89 -36 -249t-86 -304q113 161 195.5 260.5t102 99.5t37.5 -19t18 -35z" />
    <glyph glyph-name="l" unicode="l" horiz-adv-x="245" 
d="M228 707q0 -188 -78 -488q-50 -204 -70 -204q-14 0 -32.5 22t-18.5 34t29 124t58 275.5t29 294.5q0 14 4 20t17 6t37.5 -28.5t24.5 -55.5z" />
    <glyph glyph-name="m" unicode="m" horiz-adv-x="796" 
d="M678 511q30 0 53.5 -41.5t23.5 -94t-18.5 -136.5t-49.5 -154t-61 -70q-21 0 -21 27.5t34.5 135t34.5 171t-20 63.5q-25 0 -57.5 -44t-69.5 -106t-40 -66.5t-7.5 -12.5t-10 -17t-28 -54t-39.5 -70.5t-29.5 -25.5t-27.5 16t-15 30t18 58q52 130 52 242q0 21 -9 35.5
t-20 14.5t-23 -9.5t-30 -34t-32 -46.5t-42.5 -68.5t-43 -69t-33.5 -52t-29.5 -45.5t-23.5 -35q-27 -37 -39.5 -37t-32.5 22.5t-20 34t4 28.5t8.5 33t14 47.5t22 74t19 117t9.5 109t17 34.5q22 0 43.5 -23t21.5 -46q0 -88 -66 -290q112 210 141 249t50 63q39 43 79 43
q24 0 57.5 -41.5t33.5 -83.5t-12 -104q118 229 214 229z" />
    <glyph glyph-name="n" unicode="n" horiz-adv-x="533" 
d="M285.5 431.5q60.5 79.5 99 79.5t73 -41t34.5 -87q0 -72 -33 -176q-60 -192 -108 -192q-22 0 -22 30q0 21 21.5 85.5t40 127t18.5 94t-9.5 46.5t-19 15t-19.5 -6t-22.5 -20t-23.5 -27.5t-27.5 -38.5t-27.5 -42.5t-32 -50.5t-32 -50t-29 -46t-28.5 -45t-23.5 -35
q-25 -37 -39.5 -37t-33.5 22.5t-19 39.5q0 5 7 27q19 58 42 143.5t25 194.5q3 73 21 73q22 0 44 -23t22 -50.5t-16.5 -106t-38.5 -146.5q96 163 156.5 242.5z" />
    <glyph glyph-name="o" unicode="o" horiz-adv-x="453" 
d="M333 341q0 34 -11 64.5t-32 44.5q-69 -19 -118.5 -106.5t-49.5 -164.5t38 -96q72 14 122.5 98.5t50.5 159.5zM161.5 460.5q56.5 50.5 116 50.5t99.5 -50.5t40 -123t-35 -148t-96.5 -125t-130.5 -49.5q-51 0 -85 47t-34 119.5t34.5 150.5t91 128.5z" />
    <glyph glyph-name="p" unicode="p" horiz-adv-x="478" 
d="M358 514q43 0 74.5 -55t31.5 -113.5t-34 -117t-84 -104.5t-110.5 -76.5t-111.5 -30.5q-20 0 -38 5q-4 -17 -14 -61t-17 -73t-16 -62q-18 -68 -32 -68t-29.5 21.5t-15.5 38.5t32 146q96 389 96 524q0 30 22 30q18 0 43.5 -26.5t25.5 -58.5q0 -16 -4 -35q89 116 181 116z
M114 95q53 0 114.5 36t105 95.5t43.5 118.5q0 83 -39 83t-105.5 -67t-105.5 -174l-23 -92h10z" />
    <glyph glyph-name="q" unicode="q" horiz-adv-x="474" 
d="M396 -78q10 0 19 -8.5t9 -18.5q0 -16 -39.5 -39.5t-74.5 -48.5t-55 -38.5t-32 -13.5t-25 21.5t-13 33.5t1.5 19.5t5.5 20.5t9 26.5t13.5 37.5t16.5 45.5t21.5 58.5t25.5 69q-34 -33 -74 -52.5t-75 -19.5t-74 42t-39 85.5t27.5 107t68.5 121.5t96.5 99t101 41t82.5 -37
t37 -62.5t-17 -25.5q-12 0 -38.5 22.5t-46.5 22.5q-44 0 -100.5 -56.5t-94.5 -126.5t-38 -112q0 -16 11 -27t27 -11q55 0 125 62t95 159q4 15 20 15t37.5 -15.5t21.5 -30t-17 -62t-58.5 -156.5t-72.5 -197q73 49 113 49z" />
    <glyph glyph-name="r" unicode="r" horiz-adv-x="331" 
d="M91 389l-3 75q0 47 22 47q19 0 36.5 -24.5t17.5 -58t-2 -50.5q87 132 165 132q49 0 49 -24q0 -12 -11 -22t-35 -23q-53 -23 -89.5 -70.5t-59.5 -107.5t-36.5 -101t-20.5 -64t-16 -45q-16 -40 -37 -40q-17 0 -27.5 19.5t-10.5 38t17 73.5q41 126 41 245z" />
    <glyph glyph-name="s" unicode="s" horiz-adv-x="426" 
d="M317 511q34 0 64 -37.5t30 -65.5q0 -17 -16 -17q-11 0 -34 17.5t-47 17.5t-75.5 -28t-51.5 -59q0 -23 92 -79q35 -22 63.5 -56.5t28.5 -74t-54.5 -77t-127 -37.5t-128 35t-55.5 66q0 13 6.5 20.5t16.5 7.5t28 -13q54 -39 112.5 -39t84.5 13.5t26 36t-29 48t-63.5 45.5
t-63.5 49t-29 59q0 53 83.5 110.5t138.5 57.5z" />
    <glyph glyph-name="t" unicode="t" horiz-adv-x="387" 
d="M143 115q0 -19 22 -19q38 0 92.5 21.5t60.5 21.5q18 0 18 -19q0 -29 -59.5 -67t-108 -38t-80.5 26.5t-32 54.5t12 71.5t34.5 115t35.5 118.5q-47 -11 -63 -11t-31.5 16.5t-15.5 31.5q0 24 130 46q18 83 18 147q0 30 20 30q17 0 42 -21.5t25 -48.5t-17 -95q57 5 91 5
q60 0 60 -26q0 -15 -32.5 -25t-136.5 -31q-21 -79 -53 -180.5t-32 -123.5z" />
    <glyph glyph-name="u" unicode="u" horiz-adv-x="481" 
d="M393 505q4 6 17.5 6t33 -26t19.5 -50q0 -13 -44 -154t-68 -224q-12 -42 -34 -42q-13 0 -22 11t-9 40t23 105q-42 -68 -91 -112t-89.5 -44t-76.5 38t-36 78q0 95 55.5 237.5t92.5 142.5q18 0 31.5 -16.5t13.5 -37.5q0 -9 -27 -64.5t-54 -130t-27 -130.5q0 -16 10 -26.5
t24 -10.5q38 0 90.5 67t95.5 156t64 165q4 16 8 22z" />
    <glyph glyph-name="v" unicode="v" horiz-adv-x="422" 
d="M376 511q17 0 33 -12.5t16 -27.5q0 -27 -72.5 -187t-103 -215.5t-53.5 -55.5q-13 0 -32 19t-28 41q-27 63 -58 203t-31 205q0 30 18 30q22 0 45 -18.5t32 -46.5q3 -16 8 -80q14 -158 48 -243q27 58 69 164.5t68.5 165t40.5 58.5z" />
    <glyph glyph-name="w" unicode="w" horiz-adv-x="673" 
d="M433 405l-7 -188q0 -78 7 -113q43 45 74.5 105.5t47 112.5t27 97.5t21.5 72.5t23 27q19 0 34 -15.5t15 -35.5q0 -51 -46 -168q-39 -108 -102 -197.5t-98 -89.5t-52.5 39t-19.5 149.5t3 191.5q-69 -188 -122 -284t-84 -96q-14 0 -29.5 13t-24.5 34q-22 53 -37.5 202.5
t-15.5 213.5q0 41 25 41q22 0 40.5 -25t21.5 -49.5t5.5 -136t18.5 -198.5q41 71 82.5 178t68 168t48.5 61q33 0 54.5 -30.5t21.5 -79.5z" />
    <glyph glyph-name="x" unicode="x" horiz-adv-x="427" 
d="M327.5 467q39.5 44 58.5 44t37.5 -16t18.5 -27.5t-7 -19t-22.5 -20.5t-29 -27.5t-34.5 -40t-50.5 -63t-48.5 -60.5q6 -9 18.5 -30t21 -35t22 -35.5t22.5 -35t17 -27.5q16 -26 16 -36t-7 -16.5t-17 -6.5q-45 0 -144 161q-131 -161 -159 -161q-16 0 -33 16.5t-17 30.5
q0 5 22 27q97 97 145 158q-46 82 -78 152t-32 84.5t1 18.5q2 9 22 9t49 -12t29 -29q0 -42 59 -156q81 109 120.5 153z" />
    <glyph glyph-name="y" unicode="y" horiz-adv-x="469" 
d="M456.5 487.5q18.5 -23.5 18.5 -52.5q0 -20 -41 -136t-55.5 -157.5t-39 -110t-47.5 -133.5q-50 -143 -150 -143q-57 0 -109 34.5t-52 71.5q0 14 12.5 31t21.5 17t29 -22q58 -66 99 -66q31 0 56 54.5t47.5 123t25 75.5t6 18t6.5 20q-71 -97 -140 -97q-42 0 -77.5 39
t-35.5 92t26 143t61 156t57 66q18 0 33.5 -16.5t15.5 -33.5t-26 -71q-81 -166 -81 -258q0 -16 10 -26.5t24 -10.5q36 0 86 64t92 152q35 74 73 189q4 11 20 11t34.5 -23.5z" />
    <glyph glyph-name="z" unicode="z" horiz-adv-x="440" 
d="M98 500.5q44 10.5 120.5 10.5t125.5 -20q22 -9 40.5 -36.5t18.5 -45.5q0 -38 -46.5 -87t-101.5 -87t-101.5 -73t-46.5 -47q0 -17 26 -17q57 0 140 8t99 8q39 0 39 -23q0 -32 -100 -54t-193 -22q-43 0 -79 32.5t-36 59.5t50.5 72.5t110.5 86.5q161 112 161 140
q0 19 -102 19q-25 0 -62 -5.5t-53.5 -5.5t-35 21t-18.5 36q0 19 44 29.5z" />
    <glyph glyph-name="braceleft" unicode="{" horiz-adv-x="421" 
d="M183 338h-5q5 -18 5 -43.5t-27 -95.5t-27 -122t28.5 -73t74.5 -21t59 -6t13 -23.5t-29 -33t-65 -15.5q-71 0 -120 50t-49 112.5t33.5 140.5t33.5 127q0 12 -15 36q-28 23 -28 50q0 8 3.5 15.5t10.5 7.5t36.5 -18t52 -18t38 14.5t15.5 36.5t-23.5 94t-23.5 141t54.5 118.5
t121.5 49.5t105.5 -37.5t38.5 -89.5q0 -24 -15.5 -50t-31.5 -26q-14 0 -14 41.5t-12.5 60.5t-55 19t-76.5 -32t-33.5 -92t22.5 -126t22 -89q0 -40 -32 -71.5t-85 -31.5z" />
    <glyph glyph-name="bar" unicode="|" horiz-adv-x="368" 
d="M87.5 -112.5q-20.5 22.5 -20.5 41t86.5 416t86.5 453.5q0 16 4.5 23t19.5 7t39 -29.5t24 -61.5t-81 -374q-6 -25 -38 -171q-71 -327 -85.5 -327t-35 22.5z" />
    <glyph glyph-name="braceright" unicode="}" horiz-adv-x="538" 
d="M457 356q0 -27 -38 -43q-52 -29 -62 -171q-4 -55 -12.5 -109t-39.5 -89.5t-86.5 -35.5t-98.5 29t-43 57t16 28t27 -11q34 -34 88 -34q34 0 50.5 40t18.5 92.5t13 115t35 95.5q-32 15 -52 42t-20 59.5t27.5 71t60 70t60 71.5t27.5 74.5t-26 57.5t-56.5 23t-50.5 -13
t-31.5 -28t-23 -28t-22 -13t-27.5 18.5t-17 30.5q0 34 56.5 70t116.5 36t115.5 -48t55.5 -96t-28.5 -93.5t-63.5 -76.5q-91 -84 -91 -122q0 -45 56 -52q8 -1 18 -2q48 -5 48 -16z" />
    <glyph glyph-name="asciitilde" unicode="~" horiz-adv-x="594" 
d="M80 273q0 48 53.5 102.5t105.5 54.5q27 0 50.5 -17t37 -38t33 -39.5t39.5 -21.5q20 3 37 19t26 33q23 46 49 46t26 -35q0 -48 -42.5 -96.5t-92.5 -48.5q-74 0 -154 128q-28 -12 -50 -33.5t-32 -39.5q-27 -46 -51 -46q-35 0 -35 32z" />
    <glyph glyph-name="uni00A0" unicode="&#xa0;" horiz-adv-x="401" 
 />
    <glyph glyph-name="exclamdown" unicode="&#xa1;" horiz-adv-x="354" 
d="M296.5 470.5q-16.5 -20.5 -34 -20.5t-41.5 48t-24 73q0 7 10 16t20 9q24 0 55 -31t31 -52.5t-16.5 -42zM167 -217q-19 0 -51.5 24t-32.5 38q0 86 43 299.5t70 213.5q16 0 29.5 -16t14 -28t-13 -78.5t-28 -185.5t-14.5 -241q0 -26 -17 -26z" />
    <glyph glyph-name="cent" unicode="&#xa2;" horiz-adv-x="482" 
d="M391 601q7 -12 7 -26t-18 -68q30 -16 51 -45.5t21 -50t-16 -20.5q-13 0 -40.5 19.5t-36.5 23.5q-16 -58 -46 -170t-41 -153q43 5 81.5 20.5t49.5 15.5q19 0 19 -19q0 -24 -57 -56.5t-116 -42.5q-31 -100 -44 -100q-9 0 -18.5 10t-9.5 20t13 70q-54 10 -98 53.5t-44 92.5
q0 102 90 219t182 126q33 93 51 93q13 0 20 -12zM137 177q0 -28 19.5 -47t51.5 -22q37 167 82 316q-55 -32 -104 -111t-49 -136z" />
    <glyph glyph-name="sterling" unicode="&#xa3;" horiz-adv-x="657" 
d="M569 510l5 39q0 45 -41 45q-28 0 -53.5 -39.5t-64.5 -155.5h8q95 0 122.5 -3.5t27.5 -16.5q0 -39 -180 -52q-36 -113 -66 -180q59 -61 102 -61q28 0 53.5 13.5t40.5 30.5q40 43 58 43t29 -13t11 -32q0 -35 -64 -77.5t-116 -42.5q-74 0 -152 72q-47 -65 -113 -65
q-37 0 -83.5 47t-46.5 91t31 73.5t80 29.5t104 -44q22 60 37 112q-107 0 -107 26q0 18 13 37.5t25 19.5q39 0 92 -5q48 161 97 221.5t121 60.5q46 0 77 -37t31 -85q0 -22 -24 -45.5t-39 -23.5t-15 17zM181 86q21 0 49 54q-43 43 -66 43q-38 0 -38 -35q0 -17 19 -39.5
t36 -22.5z" />
    <glyph glyph-name="currency" unicode="&#xa4;" horiz-adv-x="600" 
d="M519 465q-19 -19 -33.5 -32.5t-23.5 -22.5q22 -36 22 -83q0 -88 -62 -150q49 -77 49 -88t-7 -17t-17 -6q-30 0 -84 70q-31 -14 -70 -14t-72 18q-67 -74 -85.5 -74t-34.5 16t-16 24.5t8 17.5t31.5 32t38.5 39q-25 39 -25 91q0 71 48 129q-10 19 -26 45q-32 50 -32 60
q0 21 15 21q27 0 54.5 -10t33 -26.5t17.5 -38.5q38 19 78 19t71 -15q61 71 90 71q15 0 33 -16.5t18 -28.5t-19 -31zM245 379.5q-32 -42.5 -32 -89t26 -75t68 -28.5t74 42.5t31.5 87t-25.5 75t-67.5 30.5t-74.5 -42.5z" />
    <glyph glyph-name="yen" unicode="&#xa5;" horiz-adv-x="563" 
d="M366 374q47 0 89.5 -5t42.5 -25q0 -29 -190 -44q-3 -25 -9 -56q60 3 102 3q88 0 88 -22q0 -32 -207 -59v-2q-6 -25 -11.5 -53t-9 -44t-7.5 -31q-6 -26 -14 -26q-15 0 -37 20t-22 41t16 85q-86 -8 -132 -8q-12 0 -24 18.5t-12 31.5q0 24 185 39q3 20 7 55q-88 -9 -131 -9
q-11 0 -23 17t-12 33q0 24 151 35q-37 68 -74 154.5t-37 118.5t19 32q22 0 44.5 -16.5t34.5 -43.5q0 -1 26.5 -76.5t59.5 -133.5q8 10 48 61t61 76t53 62q61 71 85 71q15 0 30.5 -12t15.5 -19.5t-4.5 -16t-14 -21.5t-19.5 -26t-26 -31.5t-28.5 -33.5t-32 -36.5t-31.5 -35
t-32 -35.5t-29 -32h11z" />
    <glyph glyph-name="brokenbar" unicode="&#xa6;" horiz-adv-x="369" 
d="M208.5 452.5q-20.5 22.5 -20.5 41.5t26.5 133.5t26.5 170.5q0 16 4.5 23t19 7t39 -29.5t24.5 -62.5t-34 -169.5t-51 -136.5q-14 0 -34.5 22.5zM88.5 -112.5q-20.5 22.5 -20.5 41t26 133.5t26 171q0 30 22 30q17 0 41 -29.5t24 -62t-33.5 -169.5t-50.5 -137
q-14 0 -34.5 22.5z" />
    <glyph glyph-name="section" unicode="&#xa7;" horiz-adv-x="464" 
d="M338 678q-33 0 -62 -25.5t-29 -49.5t18 -48.5t44.5 -51t52.5 -55.5t44 -68t18 -82.5t-44 -89t-109 -63.5q46 -51 46 -108t-45.5 -100.5t-122.5 -43.5q-56 0 -101.5 37.5t-45.5 67.5q0 18 11.5 40t21.5 22t16.5 -9.5t12.5 -20.5q35 -59 82 -59q81 0 81 73q0 40 -61 95
q-26 23 -52 47q-61 60 -61 117t47.5 107.5t109.5 80.5q-49 58 -49 104q0 59 64 111.5t126 52.5q38 0 67 -37t29 -86.5t-28 -49.5q-25 0 -39.5 46t-41.5 46zM301.5 234q34.5 34 34.5 68.5t-19.5 64t-56.5 69.5q-119 -60 -119 -132q0 -19 13.5 -40t26 -33t40.5 -37
q46 6 80.5 40z" />
    <glyph glyph-name="dieresis" unicode="&#xa8;" horiz-adv-x="273" 
d="M206 826q16 0 36.5 -39t20.5 -54t-8.5 -24t-17.5 -9q-22 0 -49 26.5t-27 45.5t14.5 36.5t30.5 17.5zM25 808.5q15 17.5 30.5 17.5t36.5 -39t21 -54t-9 -24t-18 -9q-22 0 -49 26.5t-27 45.5t15 36.5z" />
    <glyph glyph-name="copyright" unicode="&#xa9;" horiz-adv-x="708" 
d="M693 404q0 -148 -105.5 -246t-260.5 -98q-118 0 -183 70t-65 179q0 136 110.5 243.5t246.5 107.5q117 0 187 -72.5t70 -183.5zM316 113q142 0 224 78.5t82 221.5q0 84 -47.5 138.5t-116.5 54.5q-52 0 -106.5 -21.5t-100.5 -60.5t-75 -100t-29 -139t46.5 -125t122.5 -47z
M484.5 525q16.5 -18 16.5 -33t-13 -15q-5 0 -15 3.5t-19 3.5q-40 0 -98 -68t-58 -131q0 -18 13 -29.5t31 -11.5q43 0 89.5 20.5t49.5 20.5q14 0 14 -17q0 -21 -53.5 -52.5t-95.5 -31.5t-77 33t-35 70q0 76 72.5 166t145.5 90q16 0 32.5 -18z" />
    <glyph glyph-name="ordfeminine" unicode="&#xaa;" horiz-adv-x="474" 
d="M406 666q0 -12 -7 -31q1 -3 1 -11t-9.5 -53.5t-9.5 -103.5t-17 -58q-14 0 -26.5 22t-15.5 53q-61 -75 -126 -75q-39 0 -71 32.5t-32 66t15 77t40 85.5t64.5 71.5t81.5 29.5t77 -37t35 -68zM162 513q0 -40 37.5 -40t81.5 51.5t66 130.5q-3 19 -17 34t-34 15
q-47 0 -90.5 -69.5t-43.5 -121.5z" />
    <glyph glyph-name="guillemotleft" unicode="&#xab;" horiz-adv-x="657" 
d="M663 474q19 0 35.5 -13t16.5 -24q0 -17 -55 -29q-101 -21 -175 -47.5t-74 -45t123.5 -67t123.5 -65.5q0 -19 -32 -19q-59 0 -179.5 56.5t-120.5 95.5q0 12 13 31t26 28q40 29 147 64t151 35zM352 497q19 0 35 -11t16 -22q0 -16 -35 -26q-88 -28 -167.5 -64.5t-79.5 -55.5
q0 -17 62 -47t124.5 -58.5t62.5 -40.5q0 -21 -41.5 -21t-166 61.5t-124.5 97.5q0 14 12 35t23 29q42 34 141 78.5t138 44.5z" />
    <glyph glyph-name="logicalnot" unicode="&#xac;" horiz-adv-x="496" 
d="M406 399l-299 -3q-38 0 -68.5 23.5t-30.5 43.5t18 20l277 -4q159 0 198 -10q24 -7 38.5 -35t14.5 -64t-34 -107.5t-78.5 -127.5t-72.5 -56q-19 0 -19 18q0 9 29 59q86 146 86 220q0 23 -59 23z" />
    <glyph glyph-name="uni00AD" unicode="&#xad;" horiz-adv-x="600" 
d="M422 328q0 -16 -32.5 -26t-157 -35t-136 -25t-27.5 17t-16 31q0 22 113 42.5t196 20.5q60 0 60 -25z" />
    <glyph glyph-name="registered" unicode="&#xae;" horiz-adv-x="589" 
d="M161 647q75 73 161.5 73t134 -49t47.5 -125q0 -101 -71.5 -167.5t-177.5 -66.5q-81 0 -125 47.5t-44 122.5q0 92 75 165zM248 349q95 0 150.5 53t55.5 150q0 57 -31.5 93.5t-78.5 36.5q-77 0 -143.5 -59t-66.5 -154q0 -57 31 -88.5t83 -31.5zM232 408q-5 0 -12.5 8
t-7.5 15.5t16.5 65.5t19.5 89q-13 9 -13 20q0 9 23 17.5t51 8.5t48.5 -12.5t20.5 -36.5t-21 -43t-41.5 -28t-20.5 -10q0 -12 39 -43q8 -8 17 -15t13 -12q9 -8 9 -14q0 -10 -15.5 -10t-47.5 27t-47 52l-1 -2q-22 -77 -30 -77zM341 582q0 14 -30 14q-12 0 -30 -6q2 -4 2 -14.5
t-11 -51.5q54 27 64 43q5 7 5 15z" />
    <glyph glyph-name="macron" unicode="&#xaf;" horiz-adv-x="365" 
d="M317.5 650.5q37.5 -4.5 37.5 -19t-30 -21t-144 -19.5t-117 -13q-19 0 -36.5 17t-17.5 32q0 28 175 28q95 0 132.5 -4.5z" />
    <glyph glyph-name="degree" unicode="&#xb0;" horiz-adv-x="339" 
d="M261.5 520q23.5 37 23.5 68.5t-12 48.5t-32 17q-34 0 -58 -38t-24 -69.5t12.5 -47.5t32.5 -16q34 0 57.5 37zM79 530q0 70 54 132.5t127 62.5q48 0 77 -32.5t29 -82.5q0 -70 -54 -132.5t-126 -62.5q-48 0 -77.5 32.5t-29.5 82.5z" />
    <glyph glyph-name="plusminus" unicode="&#xb1;" horiz-adv-x="600" 
d="M543 487q61 0 61 -25q0 -39 -222 -64q-33 -168 -46 -191q-6 -10 -12 -11q-15 0 -30.5 18.5t-15.5 34t21 141.5q-82 -5 -135 -5q-22 0 -41.5 21.5t-19.5 41t26 19.5h106q29 0 77 2q14 100 14 158q0 26 18 26t45.5 -25.5t27.5 -43.5t-18 -108q132 11 144 11zM495 152
q66 0 66 -19t-54.5 -34.5t-130.5 -22.5q-159 -16 -243 -16q-20 0 -37 19.5t-17 36t20 16.5q86 0 230 10t166 10z" />
    <glyph glyph-name="uni00B2" unicode="&#xb2;" horiz-adv-x="308" 
d="M216 662q-27 0 -52 -30q-8 -11 -14 -11t-21.5 11t-15.5 19q0 21 31.5 45t71 24t63.5 -26t24 -66q0 -58 -47.5 -114t-119.5 -102q114 19 134 19q37 0 37 -18.5t-75 -36.5t-115 -18q-17 0 -36 15.5t-19 29t29 38.5t63 51t63 63.5t29 72t-30 34.5z" />
    <glyph glyph-name="uni00B3" unicode="&#xb3;" horiz-adv-x="311" 
d="M128 533q0 20 64 52q25 12 45 30.5t20 36.5q0 16 -20 16t-49 -17t-37 -17t-20.5 12.5t-12.5 20.5q0 18 41 35.5t75 17.5t56.5 -23t22.5 -49.5t-27 -53.5t-65 -48q87 -19 87 -68q0 -46 -65.5 -81t-126.5 -35t-61 20q0 10 47 22t94 30.5t47 43.5q0 14 -28 21t-57 13.5
t-30 19.5v1z" />
    <glyph glyph-name="acute" unicode="&#xb4;" horiz-adv-x="219" 
d="M17.5 666.5q-7.5 8.5 -7.5 22t12 29.5t37 40t39.5 38t22.5 22t17 16q17 14 30.5 14t27 -19t13.5 -32.5t-2.5 -20t-6.5 -11t-13.5 -12t-17.5 -12.5t-25 -15.5t-28.5 -18.5t-24.5 -18t-19 -14q-26 -17 -36.5 -17t-18 8.5z" />
    <glyph glyph-name="mu" unicode="&#xb5;" horiz-adv-x="575" 
d="M492 511q17 0 37 -26t20 -50q0 -12 -50 -174t-62 -204t-36 -42q-30 0 -30 45q0 30 22 110q-96 -155 -179 -155q-28 0 -47 17t-24 43q-7 -15 -40 -92t-51 -113q-34 -70 -47 -70q-15 0 -30 10.5t-15 20t16 46.5q71 170 103.5 259.5t61.5 185.5t46.5 142.5t30.5 46.5
t32 -11.5t19 -20.5q0 -20 -21 -79q-60 -176 -60 -268q0 -16 9.5 -26.5t23.5 -10.5q40 0 96 74t98.5 164t55.5 150q6 28 21 28z" />
    <glyph glyph-name="paragraph" unicode="&#xb6;" horiz-adv-x="521" 
d="M249 405q-47 -37 -84 -37t-66 32t-29 66q0 77 51.5 167t124.5 122q33 14 95 23t96.5 9t49 -5.5t31.5 -31t17 -50.5q-1 -152 -90 -486q-55 -199 -75 -199q-12 0 -28 14t-16 26.5t28.5 114.5t63 261t45.5 296q-33 -10 -94 -19q1 -4 1 -11q-1 -153 -90 -483
q-53 -199 -75 -199q-13 0 -28.5 14t-15.5 26t15 68q60 224 73 282z" />
    <glyph glyph-name="periodcentered" unicode="&#xb7;" horiz-adv-x="237" 
d="M145 246q-25 0 -57 32t-32 54t17.5 43t36 21t43 -49t24.5 -74q0 -8 -11 -17.5t-21 -9.5z" />
    <glyph glyph-name="cedilla" unicode="&#xb8;" horiz-adv-x="252" 
d="M148 -56q30 0 62 -18t32 -39q-1 -44 -62 -71t-126 -27q-19 0 -31.5 7t-12.5 17q0 13 26.5 18.5t64.5 14.5t56 28q-7 9 -47.5 17.5t-40.5 18.5t8 29.5t20.5 45t18.5 43.5t33.5 18t27.5 -23t-32 -79h3z" />
    <glyph glyph-name="uni00B9" unicode="&#xb9;" horiz-adv-x="154" 
d="M116 705q0 19 12 19t31.5 -16.5t19.5 -26.5q0 -35 -22.5 -163.5t-31 -146.5t-17 -18t-19.5 12.5t-11 20t19 120.5t19 199z" />
    <glyph glyph-name="ordmasculine" unicode="&#xba;" horiz-adv-x="452" 
d="M206.5 651q-30.5 -47 -30.5 -101t38 -82q54 9 88 52t34 106t-45 85q-54 -13 -84.5 -60zM292 771q51 0 81 -46.5t30 -102.5q0 -75 -54.5 -143t-137.5 -68q-44 0 -73.5 44t-29.5 99q0 82 53.5 149.5t130.5 67.5z" />
    <glyph glyph-name="guillemotright" unicode="&#xbb;" horiz-adv-x="833" 
d="M415 461q0 10 14.5 23t27.5 13q50 -1 156 -64.5t106 -108.5q0 -29 -21 -48q-44 -35 -150.5 -80.5t-143 -45.5t-36.5 15.5t135.5 78t135.5 79.5q0 21 -61 57.5t-125 54.5q-38 12 -38 26zM127 434q0 10 17 25t30 15q56 0 163 -51.5t107 -97.5q0 -39 -136 -103t-195 -64
q-28 0 -28 17q0 15 68.5 46t137.5 61.5t69 45.5q0 19 -62.5 44.5t-131.5 38.5q-39 7 -39 23z" />
    <glyph glyph-name="onequarter" unicode="&#xbc;" horiz-adv-x="783" 
d="M646 326q12 0 32 -19t20 -34q0 -63 -38.5 -190.5t-65.5 -127.5q-11 0 -19 12t-8 24.5t5.5 32t15.5 53t17 61.5q-54 -22 -103 -22t-76 24.5t-27 64.5t38 106.5t80.5 116.5t56 50t26.5 -13t13 -24t-35 -56q-108 -136 -108 -175q0 -16 6.5 -23t24 -7t39 6t46.5 16t34 13
q6 42 6 89q0 22 20 22zM599 735.5q14 -22.5 14 -43.5t-36.5 -74t-113 -152t-118.5 -158q-135 -196 -182 -259t-62 -63q-8 0 -20 14.5t-12 27t30.5 63t114.5 171.5q193 276 337 478q15 17 24.5 17.5t23.5 -22zM173.5 307.5q-5.5 -10.5 -15 -10.5t-24.5 14.5t-15 24t24 151
t24 255.5q0 20 15.5 20t38.5 -19.5t23 -31.5q0 -62 -25 -194q-4 -21 -11.5 -64t-11.5 -63.5t-10.5 -46t-12 -36z" />
    <glyph glyph-name="onehalf" unicode="&#xbd;" horiz-adv-x="787" 
d="M637 70q46 0 46 -20q0 -23 -96 -45.5t-147 -22.5q-21 0 -44.5 19t-23.5 41q0 11 24 32.5t58.5 48.5t69 57.5t58.5 68t24 72.5q0 49 -38 49q-26 0 -53 -25.5t-31 -25.5q-10 0 -28.5 12t-18.5 22q0 27 41 57.5t89.5 30.5t79.5 -33.5t31 -81.5q0 -77 -65 -151t-161 -131
q162 26 185 26zM559 758q11 0 25.5 -22t14.5 -43.5t-36.5 -75t-113 -152t-118.5 -157.5q-136 -197 -183 -259.5t-61 -62.5q-8 0 -20 14.5t-12 26.5t22 49.5t70 107.5t99 142q191 270 287 408q14 21 18.5 22.5t7.5 1.5zM156 302.5q-4 -5.5 -12.5 -5.5t-23.5 14.5t-15 28
t12 73.5q36 180 36 329q0 20 15.5 20t38.5 -19.5t23 -31.5q-1 -73 -26 -194q-3 -17 -8 -46.5t-8 -46.5t-7.5 -40t-8 -36t-8 -26.5t-8.5 -19z" />
    <glyph glyph-name="threequarters" unicode="&#xbe;" horiz-adv-x="876" 
d="M757 326q12 0 31 -19t19 -34q0 -62 -39 -190t-65 -128q-11 0 -18.5 12t-7.5 24.5t6 32.5t16 53t17 61q-56 -22 -103.5 -22t-75.5 25t-28 64.5t38 106t81 116.5t56.5 50t26.5 -13t13 -24t-36 -56q-107 -134 -107 -175q0 -16 6.5 -23t23.5 -7t38 5.5t48 16.5t34 13
q6 42 6 89q0 22 20 22zM709.5 736q14.5 -22 14.5 -43.5t-36 -74.5t-113.5 -153t-118.5 -157q-136 -197 -183 -259.5t-61 -62.5q-8 0 -20 14.5t-12 26.5t22 49.5t70 107.5t99 142q191 270 240 340.5t52.5 75.5t4.5 6.5t3.5 4t4.5 3.5q2 2 10.5 2t23 -22zM179 551v3
q0 20 83 64q30 17 56 41t26 47t-26 23t-64 -21.5t-47.5 -21.5t-24.5 14.5t-15 24.5q0 22 52 44.5t94 22.5t71 -29t29 -61.5t-36 -69t-85 -63.5q52 -9 83.5 -31.5t31.5 -54.5q0 -57 -83.5 -101.5t-160.5 -44.5t-77 25q0 12 121 40q45 11 83 33t38 50q0 19 -37 27.5
t-74.5 15.5t-37.5 23z" />
    <glyph glyph-name="questiondown" unicode="&#xbf;" horiz-adv-x="380" 
d="M276 596q24 0 55 -31t31 -52.5t-16.5 -42t-34 -20.5t-41.5 48t-24 73q0 7 10 16t20 9zM240 -41l-2 26q0 12 12 17.5t22 5.5t29 -23t19 -39q0 -55 -49 -98t-114.5 -43t-110.5 41t-45 111q0 41 27 86t62 79q96 93 123 154.5t35 69.5t15 8q26 0 26 -64t-71 -138
q-30 -32 -59.5 -63t-50 -64.5t-20.5 -63.5t21.5 -49.5t52.5 -19.5t54.5 19t23.5 48z" />
    <glyph glyph-name="Agrave" unicode="&#xc0;" horiz-adv-x="608" 
d="M564 363q0 -19 -88 -44q8 -104 8 -177q0 -126 -33 -126q-18 0 -27.5 21t-14.5 73q-15 179 -16 188q-146 -38 -193 -52q-88 -230 -104.5 -230t-35 19.5t-18.5 41.5q0 7 58 143q-3 -1 -15 -1t-27.5 13t-15.5 32.5t99 51.5q16 36 32.5 80.5t59 145.5t52 125t37 43.5
t53.5 19.5q31 0 55.5 -99t39.5 -245q28 3 48 3q46 0 46 -26zM236 342q75 20 150 32q-18 171 -35 256q-51 -118 -115 -288zM248 904.5q-2 4.5 -2 16.5t15 30.5t33 18.5q15 0 38 -27q18 -21 58 -62.5t44.5 -51t4.5 -19t-8 -18t-17.5 -8.5t-19.5 6.5t-29.5 21.5t-31 22.5
t-23.5 16t-18.5 13t-15.5 11t-13.5 11t-8.5 9.5t-6 9.5z" />
    <glyph glyph-name="Aacute" unicode="&#xc1;" horiz-adv-x="608" 
d="M564 363q0 -19 -88 -44q8 -104 8 -177q0 -126 -33 -126q-18 0 -27.5 21t-14.5 73q-15 179 -16 188q-146 -38 -193 -52q-88 -230 -104.5 -230t-35 19.5t-18.5 41.5q0 7 58 143q-3 -1 -15 -1t-27.5 13t-15.5 32.5t99 51.5q16 36 32.5 80.5t59 145.5t52 125t37 43.5
t53.5 19.5q31 0 55.5 -99t39.5 -245q28 3 48 3q46 0 46 -26zM236 342q75 20 150 32q-18 171 -35 256q-51 -118 -115 -288zM390 785.5q-5 -1.5 -13 -1.5t-15.5 8t-7.5 21.5t12.5 29t49.5 53.5q30 27 43 41t23 21q18 15 31 15t26 -18.5t13 -33t-2.5 -21.5t-12 -15t-17.5 -13
q-71 -48 -90.5 -62t-27 -18.5t-12.5 -6z" />
    <glyph glyph-name="Acircumflex" unicode="&#xc2;" horiz-adv-x="608" 
d="M564 363q0 -19 -88 -44q8 -104 8 -177q0 -126 -33 -126q-18 0 -27.5 21t-14.5 73q-15 179 -16 188q-146 -38 -193 -52q-88 -230 -104.5 -230t-35 19.5t-18.5 41.5q0 7 58 143q-3 -1 -15 -1t-27.5 13t-15.5 32.5t99 51.5q16 36 32.5 80.5t59 145.5t52 125t37 43.5
t53.5 19.5q31 0 55.5 -99t39.5 -245q28 3 48 3q46 0 46 -26zM236 342q75 20 150 32q-18 171 -35 256q-51 -118 -115 -288zM284 808q-20 -14 -33.5 -14t-23 9t-9.5 27t16 35.5t40.5 31.5t40.5 24t26 16t21 12q24 12 33.5 12t18 -5t13.5 -11q8 -10 23.5 -29.5t30 -35.5
t20.5 -23.5t15 -18.5q16 -21 16 -33q0 -24 -25 -24q-16 0 -39 19t-36 35t-39 49q-28 -14 -58.5 -38t-50.5 -38z" />
    <glyph glyph-name="Atilde" unicode="&#xc3;" horiz-adv-x="608" 
d="M564 363q0 -19 -88 -44q8 -104 8 -177q0 -126 -33 -126q-18 0 -27.5 21t-14.5 73q-15 179 -16 188q-146 -38 -193 -52q-88 -230 -104.5 -230t-35 19.5t-18.5 41.5q0 7 58 143q-3 -1 -15 -1t-27.5 13t-15.5 32.5t99 51.5q16 36 32.5 80.5t59 145.5t52 125t37 43.5
t53.5 19.5q31 0 55.5 -99t39.5 -245q28 3 48 3q46 0 46 -26zM236 342q75 20 150 32q-18 171 -35 256q-51 -118 -115 -288zM254 787q-32 0 -32 33.5t39 74t79 40.5q23 0 41.5 -12t27.5 -27q25 -40 43 -43q17 3 38.5 36.5t40.5 33.5q25 0 25 -34.5t-31.5 -71.5t-69.5 -37
q-55 0 -111 89q-23 -12 -47 -47t-43 -35z" />
    <glyph glyph-name="Adieresis" unicode="&#xc4;" horiz-adv-x="608" 
d="M564 363q0 -19 -88 -44q8 -104 8 -177q0 -126 -33 -126q-18 0 -27.5 21t-14.5 73q-15 179 -16 188q-146 -38 -193 -52q-88 -230 -104.5 -230t-35 19.5t-18.5 41.5q0 7 58 143q-3 -1 -15 -1t-27.5 13t-15.5 32.5t99 51.5q16 36 32.5 80.5t59 145.5t52 125t37 43.5
t53.5 19.5q31 0 55.5 -99t39.5 -245q28 3 48 3q46 0 46 -26zM236 342q75 20 150 32q-18 171 -35 256q-51 -118 -115 -288zM333 799q-22 0 -49 26.5t-27 45.5t14.5 36.5t30.5 17.5t36.5 -39t20.5 -54t-8.5 -24t-17.5 -9zM483 799q-22 0 -49 26.5t-27 45.5t15 36.5t30.5 17.5
t36.5 -39t21 -54.5t-9 -24t-18 -8.5z" />
    <glyph glyph-name="Aring" unicode="&#xc5;" horiz-adv-x="608" 
d="M564 363q0 -19 -88 -44q8 -104 8 -177q0 -126 -33 -126q-18 0 -27.5 21t-14.5 73q-15 179 -16 188q-146 -38 -193 -52q-88 -230 -104.5 -230t-35 19.5t-18.5 41.5q0 7 58 143q-3 -1 -15 -1t-27.5 13t-15.5 32.5t99 51.5q16 36 32.5 80.5t59 145.5t52 125t37 43.5
t53.5 19.5q31 0 55.5 -99t39.5 -245q28 3 48 3q46 0 46 -26zM236 342q75 20 150 32q-18 171 -35 256q-51 -118 -115 -288zM457.5 805.5q-29.5 -33.5 -66 -33.5t-59.5 25t-23 64t29.5 72.5t66.5 33.5t59.5 -25.5t22.5 -64t-29.5 -72zM420.5 900.5q-7.5 10.5 -19.5 10.5
t-22.5 -14.5t-10.5 -32.5t7.5 -28.5t19.5 -10.5t22.5 14t10.5 32.5t-7.5 29z" />
    <glyph glyph-name="AE" unicode="&#xc6;" horiz-adv-x="831" 
d="M606 631h-52q3 -9 3 -19q0 -77 -41 -216q105 11 149 11q79 0 79 -31q0 -17 -47.5 -26.5t-112 -17.5t-68.5 -8.5t-10.5 -1t-11.5 -1.5q-51 -171 -51 -189q0 -33 28 -33q115 0 254 37q45 12 52 12q14 0 14 -21q0 -36 -110.5 -74t-213.5 -38q-46 0 -80.5 27t-34.5 63
q0 54 46 203q-45 -6 -116.5 -17.5t-88.5 -12.5q-83 -202 -100.5 -233.5t-27.5 -31.5q-16 0 -31.5 17t-15.5 32t17.5 57.5t50 118t90.5 221t82 187.5q21 35 86.5 47t190 12t190 -5t86.5 -13t21 -21q0 -35 -226 -35zM421 385q46 155 49 244q-115 -6 -128 -22
q-21 -22 -117 -253q77 16 196 31z" />
    <glyph glyph-name="Ccedilla" unicode="&#xc7;" horiz-adv-x="603" 
d="M243 -33q31 0 62.5 -17.5t31.5 -39.5q-1 -44 -62 -71t-126 -27q-19 0 -31.5 7.5t-12.5 18.5t26.5 16.5t64.5 15t56 28.5q-6 9 -47 17.5t-41 19.5t17.5 47.5t22.5 49.5q-56 22 -97 74t-41 109q0 94 61.5 212.5t158 204.5t185.5 86q25 0 52.5 -33t27.5 -54.5t-7 -21.5
t-28 7.5t-39 7.5q-52 0 -127.5 -65t-133 -164.5t-57.5 -183.5q0 -46 28 -71.5t74.5 -25.5t95.5 13.5t79 30.5q81 43 89 43q17 0 17 -22t-44.5 -59t-111 -67t-120.5 -32q-12 -29 -26 -54h3z" />
    <glyph glyph-name="Egrave" unicode="&#xc8;" horiz-adv-x="585" 
d="M208 333q-54 -171 -54 -207q0 -12 7.5 -19.5t19.5 -7.5q115 0 254 37q45 12 52 12q15 0 15 -21q0 -36 -110.5 -74t-213.5 -38q-46 0 -80.5 27t-34.5 68t29.5 140t59.5 211t30 189q0 11 4 23q17 37 218 37t201 -29q0 -20 -43 -27q-36 -7 -95.5 -12.5t-83.5 -8t-116 -18.5
v-3q0 -68 -37 -205q6 -1 40.5 -1t92.5 5t87.5 5t29.5 -14q0 -35 -82 -52t-190 -17zM285.5 904.5q-1.5 4.5 -1.5 16.5t15 30.5t28 18.5t21.5 -6.5t29 -29t55.5 -59t39.5 -46t4.5 -19t-8 -18t-17.5 -8.5t-20 6t-30.5 21.5t-30 22.5t-23 16.5t-19 13.5t-15.5 11t-13 10.5
t-8.5 9t-6.5 10z" />
    <glyph glyph-name="Eacute" unicode="&#xc9;" horiz-adv-x="585" 
d="M208 333q-54 -171 -54 -207q0 -12 7.5 -19.5t19.5 -7.5q115 0 254 37q45 12 52 12q15 0 15 -21q0 -36 -110.5 -74t-213.5 -38q-46 0 -80.5 27t-34.5 68t29.5 140t59.5 211t30 189q0 11 4 23q17 37 218 37t201 -29q0 -20 -43 -27q-36 -7 -95.5 -12.5t-83.5 -8t-116 -18.5
v-3q0 -68 -37 -205q6 -1 40.5 -1t92.5 5t87.5 5t29.5 -14q0 -35 -82 -52t-190 -17zM427 785.5q-5 -1.5 -12.5 -1.5t-15.5 8t-8 21.5t12.5 29.5t37 40t39 38t22.5 22t17 15q17 15 31 15t27 -18.5t13 -33t-2.5 -21.5t-12 -15t-17.5 -13q-34 -23 -52.5 -35t-32.5 -22.5
t-19.5 -14t-13.5 -8.5t-13 -6.5z" />
    <glyph glyph-name="Ecircumflex" unicode="&#xca;" horiz-adv-x="585" 
d="M208 333q-54 -171 -54 -207q0 -12 7.5 -19.5t19.5 -7.5q115 0 254 37q45 12 52 12q15 0 15 -21q0 -36 -110.5 -74t-213.5 -38q-46 0 -80.5 27t-34.5 68t29.5 140t59.5 211t30 189q0 11 4 23q17 37 218 37t201 -29q0 -20 -43 -27q-36 -7 -95.5 -12.5t-83.5 -8t-116 -18.5
v-3q0 -68 -37 -205q6 -1 40.5 -1t92.5 5t87.5 5t29.5 -14q0 -35 -82 -52t-190 -17zM322 808q-20 -14 -34 -14t-23.5 9t-9.5 27t16 35.5t40.5 31.5t40.5 24t26 16t22 12q22 12 32 12t18.5 -5t13.5 -11t16.5 -20.5t17.5 -21.5t20.5 -23t20.5 -23.5t15 -18.5q16 -21 16 -33
t-7.5 -18t-20.5 -6t-36 19t-36 35t-39 49q-28 -14 -58.5 -38t-50.5 -38z" />
    <glyph glyph-name="Edieresis" unicode="&#xcb;" horiz-adv-x="585" 
d="M208 333q-54 -171 -54 -207q0 -12 7.5 -19.5t19.5 -7.5q115 0 254 37q45 12 52 12q15 0 15 -21q0 -36 -110.5 -74t-213.5 -38q-46 0 -80.5 27t-34.5 68t29.5 140t59.5 211t30 189q0 11 4 23q17 37 218 37t201 -29q0 -20 -43 -27q-36 -7 -95.5 -12.5t-83.5 -8t-116 -18.5
v-3q0 -68 -37 -205q6 -1 40.5 -1t92.5 5t87.5 5t29.5 -14q0 -35 -82 -52t-190 -17zM370 799q-22 0 -49 26.5t-27 45.5t15 36.5t30.5 17.5t36.5 -39t21 -54.5t-8.5 -24t-18.5 -8.5zM521 799q-22 0 -49 26.5t-27 45.5t15 36.5t30.5 17.5t36.5 -39t21 -54t-9 -24t-18 -9z" />
    <glyph glyph-name="Igrave" unicode="&#xcc;" horiz-adv-x="310" 
d="M137.5 904.5q-1.5 4.5 -1.5 16.5t15 30.5t32 18.5q15 0 38 -27q18 -21 58.5 -62.5t45 -51t4.5 -19t-8.5 -18t-17.5 -8.5t-19.5 6t-30.5 21.5t-30.5 23t-23 16t-19 13t-15 11t-13 11t-9 9.5t-6 9.5zM87.5 43q-19.5 24 -19.5 44t59.5 279.5t60.5 321.5q0 17 4.5 23.5
t19 6.5t38 -31t23.5 -66.5t-72 -328.5q-7 -27 -19 -77.5t-19 -77.5t-15 -59q-17 -59 -29 -59t-31.5 24z" />
    <glyph glyph-name="Iacute" unicode="&#xcd;" horiz-adv-x="310" 
d="M251 792q-8 8 -8 21.5t12.5 29t49.5 53.5q24 22 40.5 38.5t25.5 23.5q17 15 30.5 15t27 -19t13.5 -32.5t-2.5 -20t-6.5 -11t-13.5 -12t-17.5 -12.5t-25 -15.5t-28.5 -18.5t-24.5 -18t-19 -14t-13 -8q-13 -8 -23 -8t-18 8zM87.5 43q-19.5 24 -19.5 44t59.5 279.5
t60.5 321.5q0 17 4.5 23.5t19 6.5t38 -31t23.5 -66.5t-72 -328.5q-7 -27 -19 -77.5t-19 -77.5t-15 -59q-17 -59 -29 -59t-31.5 24z" />
    <glyph glyph-name="Icircumflex" unicode="&#xce;" horiz-adv-x="310" 
d="M271.5 958q8.5 3 15.5 3t15.5 -5t13.5 -11l24 -30t30 -35t20.5 -23.5t15.5 -19.5q16 -20 16 -32q0 -24 -26 -24q-16 0 -39 19t-36 35t-39 49q-28 -15 -58.5 -38.5t-50 -37.5t-33.5 -14t-23.5 9t-9.5 27t16 35.5t40.5 31.5t40.5 24t26 16t21.5 12t20 9zM87.5 43
q-19.5 24 -19.5 44t59.5 279.5t60.5 321.5q0 17 4.5 23.5t19 6.5t38 -31t23.5 -66.5t-72 -328.5q-7 -27 -19 -77.5t-19 -77.5t-15 -59q-17 -59 -29 -59t-31.5 24z" />
    <glyph glyph-name="Idieresis" unicode="&#xcf;" horiz-adv-x="310" 
d="M342 925q16 0 36.5 -39t20.5 -54t-8.5 -24t-17.5 -9q-22 0 -49 26.5t-27 45.5t14.5 36.5t30.5 17.5zM161 907.5q15 17.5 30.5 17.5t36.5 -39t21 -54t-9 -24t-18 -9q-22 0 -49 26.5t-27 45.5t15 36.5zM87.5 43q-19.5 24 -19.5 44t59.5 279.5t60.5 321.5q0 17 4.5 23.5
t19 6.5t38 -31t23.5 -66.5t-72 -328.5q-7 -27 -19 -77.5t-19 -77.5t-15 -59q-17 -59 -29 -59t-31.5 24z" />
    <glyph glyph-name="Eth" unicode="&#xd0;" horiz-adv-x="619" 
d="M165 703q94 0 200.5 -49.5t183.5 -136.5t77 -179q0 -60 -84.5 -142.5t-195.5 -141t-184 -58.5q-19 0 -43.5 32.5t-24.5 63t41 183.5q-50 -4 -61.5 -4t-35.5 10t-24 27q0 23 44 32t100 17q52 187 57 252q-32 14 -51 35t-19 40t20 19zM534 349q0 62 -74 134t-172 105
q5 -17 5 -33q0 -42 -42 -188q13 1 35.5 1t43.5 -10.5t21 -27.5t-32.5 -25.5t-89.5 -17.5l-17 -56q-19 -66 -31 -145q69 9 154.5 60.5t142 110t56.5 92.5z" />
    <glyph glyph-name="Ntilde" unicode="&#xd1;" horiz-adv-x="677" 
d="M268 817q0 37 39 77.5t79 40.5q24 0 42.5 -12t27.5 -27q25 -40 43 -43q17 3 38.5 36.5t40.5 33.5q25 0 25 -34.5t-32 -71.5t-69 -37q-55 0 -112 89q-19 -10 -34.5 -31t-27.5 -36t-27 -15t-24 8t-9 22zM562 680q2 43 20.5 43t40.5 -23t22 -41q0 -82 -25.5 -233t-68 -280
t-80.5 -129q-13 0 -29.5 13t-25.5 32q-30 70 -177 444q-30 -116 -66.5 -262.5t-48.5 -186.5t-21 -40q-13 0 -31.5 22.5t-18.5 46.5t65 281.5t67 321.5q0 32 17 32q11 0 30.5 -18.5t28.5 -40.5q161 -418 204 -512q65 172 87 411q10 110 10 119z" />
    <glyph glyph-name="Ograve" unicode="&#xd2;" horiz-adv-x="613" 
d="M349.5 904.5q-1.5 4.5 -1.5 16.5t15 30.5t32 18.5q15 0 38 -27q18 -21 58.5 -62.5t45 -51t4.5 -19t-8 -18t-17.5 -8.5t-20 6t-30.5 21.5t-30 22.5t-23 16.5t-19 13.5t-15.5 11t-13 10.5t-8.5 9t-6.5 10zM453 300.5q47 86.5 47 163.5t-29.5 125t-69.5 48t-100 -62
t-108 -162.5t-48 -192.5q0 -55 24 -89.5t56 -34.5q50 0 115.5 59t112.5 145.5zM219 17q-66 0 -115.5 65t-49.5 132q0 91 33.5 185t84 164t111.5 114.5t113 44.5q84 0 140 -76.5t56 -172.5t-53 -201.5t-141.5 -180t-178.5 -74.5z" />
    <glyph glyph-name="Oacute" unicode="&#xd3;" horiz-adv-x="613" 
d="M463 792q-8 8 -8 21.5t12.5 29.5t37 40t39 38t22.5 22t17 15q17 15 31 15t27 -18.5t13 -33t-2.5 -21.5t-12 -15t-17.5 -13q-34 -23 -53.5 -35.5t-32.5 -22t-19 -14t-13 -8.5q-13 -8 -23 -8t-18 8zM453 300.5q47 86.5 47 163.5t-29.5 125t-69.5 48t-100 -62t-108 -162.5
t-48 -192.5q0 -55 24 -89.5t56 -34.5q50 0 115.5 59t112.5 145.5zM219 17q-66 0 -115.5 65t-49.5 132q0 91 33.5 185t84 164t111.5 114.5t113 44.5q84 0 140 -76.5t56 -172.5t-53 -201.5t-141.5 -180t-178.5 -74.5z" />
    <glyph glyph-name="Ocircumflex" unicode="&#xd4;" horiz-adv-x="613" 
d="M483.5 958q8.5 3 15.5 3t15.5 -5t13.5 -11t16.5 -20.5t17.5 -21.5t20.5 -23t20.5 -23.5t15 -18.5q16 -21 16 -33q0 -24 -26 -24q-16 0 -38.5 19t-35.5 35t-39 49q-28 -14 -58.5 -38t-50.5 -38t-34 -14t-23.5 9t-9.5 27t16 35.5t40.5 31.5t40.5 24t26 16t21.5 12t20 9z
M453 300.5q47 86.5 47 163.5t-29.5 125t-69.5 48t-100 -62t-108 -162.5t-48 -192.5q0 -55 24 -89.5t56 -34.5q50 0 115.5 59t112.5 145.5zM219 17q-66 0 -115.5 65t-49.5 132q0 91 33.5 185t84 164t111.5 114.5t113 44.5q84 0 140 -76.5t56 -172.5t-53 -201.5t-141.5 -180
t-178.5 -74.5z" />
    <glyph glyph-name="Otilde" unicode="&#xd5;" horiz-adv-x="613" 
d="M356 787q-33 0 -33 33.5t39 74t79 40.5q24 0 42.5 -12t27.5 -27q25 -40 43 -43q17 3 38.5 36.5t40.5 33.5q25 0 25 -34.5t-32 -71.5t-69 -37q-55 0 -112 89q-19 -10 -34.5 -31t-27.5 -36t-27 -15zM453 300.5q47 86.5 47 163.5t-29.5 125t-69.5 48t-100 -62t-108 -162.5
t-48 -192.5q0 -55 24 -89.5t56 -34.5q50 0 115.5 59t112.5 145.5zM219 17q-66 0 -115.5 65t-49.5 132q0 91 33.5 185t84 164t111.5 114.5t113 44.5q84 0 140 -76.5t56 -172.5t-53 -201.5t-141.5 -180t-178.5 -74.5z" />
    <glyph glyph-name="Odieresis" unicode="&#xd6;" horiz-adv-x="613" 
d="M524 907.5q15 17.5 30.5 17.5t36.5 -39t21 -54t-9 -24t-18 -9q-22 0 -49 26.5t-27 45.5t15 36.5zM373 907.5q15 17.5 30.5 17.5t36.5 -39t21 -54.5t-8.5 -24t-18.5 -8.5q-22 0 -49 26.5t-27 45.5t15 36.5zM453 300.5q47 86.5 47 163.5t-29.5 125t-69.5 48t-100 -62
t-108 -162.5t-48 -192.5q0 -55 24 -89.5t56 -34.5q50 0 115.5 59t112.5 145.5zM219 17q-66 0 -115.5 65t-49.5 132q0 91 33.5 185t84 164t111.5 114.5t113 44.5q84 0 140 -76.5t56 -172.5t-53 -201.5t-141.5 -180t-178.5 -74.5z" />
    <glyph glyph-name="multiply" unicode="&#xd7;" horiz-adv-x="488" 
d="M503 504q0 -6 -26 -30.5t-78.5 -73t-88.5 -83.5q14 -18 36 -45.5t35 -44.5t27 -35q26 -35 26 -46q0 -22 -25 -22q-46 0 -156 137q-115 -112 -134.5 -124.5t-31.5 -12.5t-29 15.5t-17 26t19.5 28t64 55t81.5 73.5q-51 69 -86 129t-35 79t18 19q28 0 58 -11.5t30 -27.5
q0 -34 71 -130q110 120 146 147q29 22 44 22t33 -15.5t18 -29.5z" />
    <glyph glyph-name="Oslash" unicode="&#xd8;" horiz-adv-x="613" 
d="M566 602q31 -62 31 -143.5t-53 -187t-141 -180t-178 -74.5q-57 0 -106 51q-44 -53 -56 -53t-19.5 8.5t-7.5 21t45 74.5q-27 49 -27 95q0 91 33.5 185t84 164t111.5 114.5t113 44.5q74 0 131 -62q53 55 73 55q24 0 24 -24.5t-43 -71.5zM145 220q0 -13 1 -19q18 23 61 75
t132 162t130 157q-30 42 -69 42t-99 -62t-108 -162.5t-48 -192.5zM505 458q0 34 -7 67q-166 -190 -327 -393q25 -36 59 -36q50 0 115.5 59t112.5 145.5t47 157.5z" />
    <glyph glyph-name="Ugrave" unicode="&#xd9;" horiz-adv-x="592" 
d="M229.5 904.5q-1.5 4.5 -1.5 16.5t15 30.5t28 18.5t21.5 -6.5t29 -29t55.5 -59t39.5 -46t4.5 -19t-8 -18t-17.5 -8.5t-20 6t-30.5 21.5t-30 22.5t-23 16.5t-19 13.5t-15.5 11t-13 10.5t-8.5 9t-6.5 10zM168 712.5q4 6.5 18.5 6.5t39 -26.5t24.5 -62t-41 -193.5t-41 -214.5
t21 -91.5t54 -35t73 38t74.5 99.5t58 150t23.5 178.5q0 42 -4.5 84t-4.5 52q0 21 18 21q23 0 53 -34.5t30 -88.5q0 -154 -45 -289t-121 -215.5t-162 -80.5q-63 0 -109.5 61t-46.5 140t42 248.5t42 228.5q0 17 4 23.5z" />
    <glyph glyph-name="Uacute" unicode="&#xda;" horiz-adv-x="592" 
d="M343 792q-8 8 -8 21.5t12.5 29.5t37 40t39 38t22.5 22t17 15q17 15 31 15t27 -18.5t13 -33t-2.5 -21.5t-12 -15t-17.5 -13q-34 -23 -52.5 -35t-32.5 -22.5t-19.5 -14t-13.5 -8.5q-13 -8 -23 -8t-18 8zM168 712.5q4 6.5 18.5 6.5t39 -26.5t24.5 -62t-41 -193.5t-41 -214.5
t21 -91.5t54 -35t73 38t74.5 99.5t58 150t23.5 178.5q0 42 -4.5 84t-4.5 52q0 21 18 21q23 0 53 -34.5t30 -88.5q0 -154 -45 -289t-121 -215.5t-162 -80.5q-63 0 -109.5 61t-46.5 140t42 248.5t42 228.5q0 17 4 23.5z" />
    <glyph glyph-name="Ucircumflex" unicode="&#xdb;" horiz-adv-x="592" 
d="M363.5 958q8.5 3 15.5 3t15.5 -5t13.5 -11t16.5 -20.5t17.5 -21.5t20.5 -23t20.5 -23.5t15 -18.5q16 -21 16 -33t-7.5 -18t-20.5 -6t-36 19t-36 35t-39 49q-28 -14 -58.5 -38t-50.5 -38t-34 -14t-23.5 9t-9.5 27t16 35.5t40.5 31.5t40.5 24t26 16t21.5 12t20 9z
M168 712.5q4 6.5 18.5 6.5t39 -26.5t24.5 -62t-41 -193.5t-41 -214.5t21 -91.5t54 -35t73 38t74.5 99.5t58 150t23.5 178.5q0 42 -4.5 84t-4.5 52q0 21 18 21q23 0 53 -34.5t30 -88.5q0 -154 -45 -289t-121 -215.5t-162 -80.5q-63 0 -109.5 61t-46.5 140t42 248.5t42 228.5
q0 17 4 23.5z" />
    <glyph glyph-name="Udieresis" unicode="&#xdc;" horiz-adv-x="592" 
d="M404 907.5q15 17.5 30.5 17.5t36.5 -39t21 -54t-9 -24t-18 -9q-22 0 -49 26.5t-27 45.5t15 36.5zM253 907.5q15 17.5 30.5 17.5t36.5 -39t21 -54.5t-8.5 -24t-18.5 -8.5q-22 0 -49 26.5t-27 45.5t15 36.5zM168 712.5q4 6.5 18.5 6.5t39 -26.5t24.5 -62t-41 -193.5
t-41 -214.5t21 -91.5t54 -35t73 38t74.5 99.5t58 150t23.5 178.5q0 42 -4.5 84t-4.5 52q0 21 18 21q23 0 53 -34.5t30 -88.5q0 -154 -45 -289t-121 -215.5t-162 -80.5q-63 0 -109.5 61t-46.5 140t42 248.5t42 228.5q0 17 4 23.5z" />
    <glyph glyph-name="Yacute" unicode="&#xdd;" horiz-adv-x="575" 
d="M349 792q-8 8 -8 21.5t12.5 29t49.5 53.5q24 22 40.5 38.5t25.5 23.5q17 15 30.5 15t27 -19t13.5 -32.5t-2.5 -20t-6.5 -11t-13.5 -12t-17.5 -12.5t-25 -15.5t-28.5 -18.5t-24.5 -18t-19 -14t-13 -8q-13 -8 -23 -8t-18 8zM327 373q18 0 65.5 85.5t97 171.5t70.5 86
t34 -15t13 -36t-38 -84t-102 -166.5t-128 -224.5t-88 -151t-39 -30q-22 0 -22 36q0 28 28 85q9 17 14 28.5t16 32.5t17 32.5t18.5 36t18.5 35.5q-59 15 -108.5 74.5t-75.5 133t-26 143.5t40 70q16 0 25.5 -31t23.5 -89t37 -106.5t55 -82.5t54 -34z" />
    <glyph glyph-name="Thorn" unicode="&#xde;" horiz-adv-x="503" 
d="M301 548q60 0 115 -52.5t55 -109.5q0 -78 -75 -134q-91 -68 -234 -68q-39 -142 -54 -162q-5 -7 -10 -7q-15 0 -31 22.5t-16 43.5t27 125q80 318 80 444q0 17 4.5 24t21 7t42 -26t25.5 -63q0 -18 -6 -52q32 8 56 8zM387 385q0 32 -28 52.5t-62 20.5t-71 -16
q-27 -114 -44 -179q11 -1 32 1q67 5 120 40.5t53 80.5z" />
    <glyph glyph-name="germandbls" unicode="&#xdf;" horiz-adv-x="585" 
d="M261 93l50 -2q45 0 86.5 26.5t41.5 70.5q0 30 -21.5 57.5t-46.5 44.5t-46.5 40.5t-21.5 41t21.5 34t46.5 30t46.5 37t21.5 49.5q0 43 -30.5 74t-66 31t-65 -36.5t-41.5 -98.5q-97 -477 -144 -477q-14 0 -28.5 17.5t-14.5 36.5t15 73q61 230 88 375q16 89 67 141t137 52
q65 0 116 -59t51 -123q0 -30 -13 -55.5t-31.5 -40.5t-36.5 -27t-31 -21.5t-13 -16t19.5 -23t43 -35.5t43 -52.5t19.5 -71.5q0 -75 -60 -121.5t-138 -46.5q-43 0 -66.5 16t-23.5 39q0 21 26 21z" />
    <glyph glyph-name="agrave" unicode="&#xe0;" horiz-adv-x="472" 
d="M346 703q11 -12 46 -48.5t39.5 -46t4.5 -19t-8.5 -18.5t-17.5 -9t-19.5 6.5t-29.5 21.5t-30 23t-24 17t-19 13t-15 10.5t-13.5 10.5t-9.5 10q-7 9 -7 23t15 32.5t33 18.5q13 0 37 -26q7 -7 18 -19zM300 511q45 0 83 -45.5t38 -82t-25 -74.5q12 -15 12 -26
q0 -28 -12.5 -96t-15 -89t-4.5 -33.5t-4 -24.5q-5 -25 -19 -25q-36 0 -43 112q-90 -112 -165 -112q-46 0 -90.5 39.5t-44.5 81.5q0 60 44 148.5t114 157.5t132 69zM346 335q0 93 -36 93q-39 0 -91.5 -55.5t-88.5 -125.5t-36 -111q0 -17 14 -27.5t33 -10.5q47 0 106 63.5
t82 154.5q3 15 17 18v1z" />
    <glyph glyph-name="aacute" unicode="&#xe1;" horiz-adv-x="472" 
d="M536 733.5q13 -18.5 13 -33t-2.5 -21.5t-12 -15t-16.5 -13q-35 -23 -54 -35.5t-32 -22.5t-19 -14q-25 -17 -36 -17t-18.5 8.5t-7.5 22.5t12.5 30t36.5 39.5t38.5 37.5t22.5 22t17 16q17 14 31 14t27 -18.5zM300 511q45 0 83 -45.5t38 -82t-25 -74.5q12 -15 12 -26
q0 -28 -12.5 -96t-15 -89t-4.5 -33.5t-4 -24.5q-5 -25 -19 -25q-36 0 -43 112q-90 -112 -165 -112q-46 0 -90.5 39.5t-44.5 81.5q0 60 44 148.5t114 157.5t132 69zM346 335q0 93 -36 93q-39 0 -91.5 -55.5t-88.5 -125.5t-36 -111q0 -17 14 -27.5t33 -10.5q47 0 106 63.5
t82 154.5q3 15 17 18v1z" />
    <glyph glyph-name="acircumflex" unicode="&#xe2;" horiz-adv-x="472" 
d="M525.5 596q3.5 -9 3.5 -16.5t-7.5 -13.5t-20.5 -6t-36 19t-36 35t-39 49q-28 -14 -58.5 -38t-50.5 -38t-33.5 -14t-23 9t-9.5 27q0 36 69 75q11 6 27 16t26 16t21 12q23 12 33 12t18.5 -5t13.5 -11t16.5 -20.5t17.5 -21.5t20.5 -23t20.5 -23.5t15 -19t12.5 -20.5z
M300 511q45 0 83 -45.5t38 -82t-25 -74.5q12 -15 12 -26q0 -28 -12.5 -96t-15 -89t-4.5 -33.5t-4 -24.5q-5 -25 -19 -25q-36 0 -43 112q-90 -112 -165 -112q-46 0 -90.5 39.5t-44.5 81.5q0 60 44 148.5t114 157.5t132 69zM346 335q0 93 -36 93q-39 0 -91.5 -55.5
t-88.5 -125.5t-36 -111q0 -17 14 -27.5t33 -10.5q47 0 106 63.5t82 154.5q3 15 17 18v1z" />
    <glyph glyph-name="atilde" unicode="&#xe3;" horiz-adv-x="472" 
d="M528 702q25 0 25 -34.5t-32 -71.5t-69 -37q-54 0 -112 88q-19 -9 -34.5 -30t-27.5 -36t-27 -15t-24 8t-9 22q0 37 39 77.5t79 40.5q24 0 42.5 -12t27.5 -26q25 -41 43 -44q17 3 38.5 36.5t40.5 33.5zM300 511q45 0 83 -45.5t38 -82t-25 -74.5q12 -15 12 -26
q0 -28 -12.5 -96t-15 -89t-4.5 -33.5t-4 -24.5q-5 -25 -19 -25q-36 0 -43 112q-90 -112 -165 -112q-46 0 -90.5 39.5t-44.5 81.5q0 60 44 148.5t114 157.5t132 69zM346 335q0 93 -36 93q-39 0 -91.5 -55.5t-88.5 -125.5t-36 -111q0 -17 14 -27.5t33 -10.5q47 0 106 63.5
t82 154.5q3 15 17 18v1z" />
    <glyph glyph-name="adieresis" unicode="&#xe4;" horiz-adv-x="472" 
d="M419 686.5q15 17.5 30.5 17.5t36.5 -39t21 -54t-9 -24t-18 -9q-22 0 -49 26.5t-27 45.5t15 36.5zM300 511q45 0 83 -45.5t38 -82t-25 -74.5q12 -15 12 -26q0 -28 -12.5 -96t-15 -89t-4.5 -33.5t-4 -24.5q-5 -25 -19 -25q-36 0 -43 112q-90 -112 -165 -112
q-46 0 -90.5 39.5t-44.5 81.5q0 60 44 148.5t114 157.5t132 69zM346 335q0 93 -36 93q-39 0 -91.5 -55.5t-88.5 -125.5t-36 -111q0 -17 14 -27.5t33 -10.5q47 0 106 63.5t82 154.5q3 15 17 18v1zM330 578q-23 0 -50 26.5t-27 45.5t15 36.5t30.5 17.5t36.5 -39t21 -54
t-8.5 -24t-17.5 -9z" />
    <glyph glyph-name="aring" unicode="&#xe5;" horiz-adv-x="472" 
d="M335.5 712.5q29.5 33.5 66.5 33.5t59.5 -25.5t22.5 -64t-29.5 -72t-66 -33.5t-59.5 25t-23 64t29.5 72.5zM371.5 614.5q7.5 -10.5 20 -10.5t23 14t10.5 32.5t-7.5 29t-20 10.5t-23 -14.5t-10.5 -32.5t7.5 -28.5zM300 511q45 0 83 -45.5t38 -82t-25 -74.5q12 -15 12 -26
q0 -28 -12.5 -96t-15 -89t-4.5 -33.5t-4 -24.5q-5 -25 -19 -25q-36 0 -43 112q-90 -112 -165 -112q-46 0 -90.5 39.5t-44.5 81.5q0 60 44 148.5t114 157.5t132 69zM346 335q0 93 -36 93q-39 0 -91.5 -55.5t-88.5 -125.5t-36 -111q0 -17 14 -27.5t33 -10.5q47 0 106 63.5
t82 154.5q3 15 17 18v1z" />
    <glyph glyph-name="ae" unicode="&#xe6;" horiz-adv-x="743" 
d="M368 345q-3 83 -45.5 83t-94 -56t-84.5 -125t-33 -111q0 -17 13 -27.5t29 -10.5q46 0 95.5 49t92.5 136q10 34 27 62zM630.5 404.5q-24.5 27.5 -55.5 27.5t-70.5 -38.5t-67.5 -95.5q42 -9 92 -9t88 16.5t38 44t-24.5 55zM29 138q0 61 40.5 148t109.5 156t135 69
q35 0 66 -24t47 -59q74 83 148 83q60 0 108.5 -56t48.5 -109.5t-57.5 -87t-125.5 -33.5t-136 16q-14 -42 -14 -77.5t21.5 -54.5t71 -19t102 17.5t57.5 17.5q26 0 26 -20q0 -27 -61 -58.5t-123 -31.5t-108.5 35t-57.5 92q-46 -62 -86 -94.5t-83.5 -32.5t-86 39.5t-42.5 83.5z
" />
    <glyph glyph-name="ccedilla" unicode="&#xe7;" horiz-adv-x="447" 
d="M179 -33q30 0 61.5 -18t31.5 -39q-1 -44 -61.5 -71t-125.5 -27q-20 0 -32.5 7t-12.5 17q0 13 27 18.5t65 14.5t56 28q-7 9 -48 17.5t-41 19.5q0 10 16.5 45.5t21.5 47.5q-44 18 -74.5 55.5t-30.5 80.5q0 68 42 150t108.5 140t129.5 58q41 0 72 -37t31 -65q0 -8 -5 -13.5
t-14.5 -5.5t-33.5 18t-43 18q-54 0 -126 -95t-72 -166q0 -31 19.5 -49t63 -18t80 10.5t56.5 21t31 10.5q19 0 19 -19q0 -28 -66 -65.5t-124 -40.5q-11 -27 -24 -48h3z" />
    <glyph glyph-name="egrave" unicode="&#xe8;" horiz-adv-x="438" 
d="M369 258.5q-58 -33.5 -130.5 -33.5t-130.5 16q-14 -44 -14 -78.5t21.5 -53.5t70.5 -19t101.5 17.5t57.5 17.5q26 0 26 -20q0 -27 -60.5 -58.5t-118.5 -31.5q-78 0 -127.5 46.5t-49.5 117.5t38 148.5t98.5 130.5t119.5 53t107.5 -56t48.5 -109.5t-58 -87zM276 432
q-38 0 -77.5 -38.5t-68.5 -96.5q45 -8 94 -8t87 16.5t38 43.5t-24.5 55t-48.5 28zM168 682.5q-2 4.5 -2 16.5t15 30.5t33 18.5q14 0 38 -26q6 -7 17.5 -19.5t46.5 -48.5t39.5 -45.5t4.5 -19t-8.5 -18.5t-17.5 -9t-19.5 6.5t-30 22t-31 23t-23.5 16t-19 13t-15.5 11t-13 10.5
t-8.5 9t-6 9.5z" />
    <glyph glyph-name="eacute" unicode="&#xe9;" horiz-adv-x="438" 
d="M459 733.5q13 -18.5 13 -33t-2.5 -21.5t-12 -15t-17.5 -13q-34 -23 -53 -35.5t-32 -22.5t-19 -14q-26 -17 -36.5 -17t-18 8.5t-7.5 22t12 29.5t36.5 39.5t39.5 38t22.5 22.5t17.5 16q18 14 31 14t26 -18.5zM151.5 458q60.5 53 119.5 53t107.5 -56t48.5 -109.5t-58 -87
t-130.5 -33.5t-130.5 16q-14 -44 -14 -78.5t21.5 -53.5t70.5 -19t101.5 17.5t57.5 17.5q26 0 26 -20q0 -27 -60.5 -58.5t-118.5 -31.5q-78 0 -127.5 46.5t-49.5 117.5t38 148.5t98.5 130.5zM130 297q45 -8 94 -8t87 16.5t38 43.5t-24.5 55t-48.5 28q-38 0 -77.5 -38.5
t-68.5 -96.5z" />
    <glyph glyph-name="ecircumflex" unicode="&#xea;" horiz-adv-x="438" 
d="M448.5 596q3.5 -9 3.5 -16.5t-7 -13.5t-20.5 -6t-36.5 19t-36 35t-39 49q-28 -15 -58.5 -38.5t-50 -37.5t-33.5 -14t-23.5 9t-9.5 27t16 35.5t40.5 31.5t40.5 24t26 16t21 12q24 12 33.5 12t18 -5t13.5 -11q8 -10 23.5 -29.5t30 -35.5t20.5 -23.5t15 -19t12.5 -20.5z
M151.5 458q60.5 53 119.5 53t107.5 -56t48.5 -109.5t-58 -87t-130.5 -33.5t-130.5 16q-14 -44 -14 -78.5t21.5 -53.5t70.5 -19t101.5 17.5t57.5 17.5q26 0 26 -20q0 -27 -60.5 -58.5t-118.5 -31.5q-78 0 -127.5 46.5t-49.5 117.5t38 148.5t98.5 130.5zM130 297q45 -8 94 -8
t87 16.5t38 43.5t-24.5 55t-48.5 28q-38 0 -77.5 -38.5t-68.5 -96.5z" />
    <glyph glyph-name="edieresis" unicode="&#xeb;" horiz-adv-x="438" 
d="M151.5 458q60.5 53 119.5 53t107.5 -56t48.5 -109.5t-58 -87t-130.5 -33.5t-130.5 16q-14 -44 -14 -78.5t21.5 -53.5t70.5 -19t101.5 17.5t57.5 17.5q26 0 26 -20q0 -27 -60.5 -58.5t-118.5 -31.5q-78 0 -127.5 46.5t-49.5 117.5t38 148.5t98.5 130.5zM130 297
q45 -8 94 -8t87 16.5t38 43.5t-24.5 55t-48.5 28q-38 0 -77.5 -38.5t-68.5 -96.5zM253 579q-22 0 -49 26t-27 45.5t14.5 36.5t30.5 17t36.5 -39t20.5 -54t-8.5 -23.5t-17.5 -8.5zM404 579q-23 0 -50 26t-27 45t14.5 36.5t30.5 17.5t37 -39t21 -54t-8.5 -23.5t-17.5 -8.5z
" />
    <glyph glyph-name="igrave" unicode="&#xec;" horiz-adv-x="238" 
d="M69.5 683q-1.5 4 -1.5 16t14.5 30.5t32.5 18.5q14 0 38 -26q6 -7 17.5 -19.5t46.5 -48.5t39.5 -45.5t4.5 -19t-8.5 -18.5t-17.5 -9t-19.5 6.5t-30 22t-30 23t-23.5 16.5t-19 13t-15 10.5t-13.5 10.5t-9 9.5t-6 9.5zM198 488q17 -23 17 -44q0 -55 -102 -378
q-17 -50 -44 -50q-14 0 -23.5 11.5t-9.5 26.5t10 55.5t26 99t38.5 157.5t30.5 122t24 23t33 -23z" />
    <glyph glyph-name="iacute" unicode="&#xed;" horiz-adv-x="238" 
d="M198 488q17 -23 17 -44q0 -55 -102 -378q-17 -50 -44 -50q-14 0 -23.5 11.5t-9.5 26.5t10 55.5t26 99t38.5 157.5t30.5 122t24 23t33 -23zM182.5 570.5q-7.5 8.5 -7.5 22.5t12.5 30t36.5 39.5t38.5 37.5t22.5 22t17 16q17 14 31 14t27 -18.5t13 -33t-2.5 -21.5t-12 -15
t-16.5 -13q-35 -23 -54 -35.5t-32 -22.5t-19 -14q-26 -17 -36.5 -17t-18 8.5z" />
    <glyph glyph-name="icircumflex" unicode="&#xee;" horiz-adv-x="238" 
d="M198 488q17 -23 17 -44q0 -55 -102 -378q-17 -50 -44 -50q-14 0 -23.5 11.5t-9.5 26.5t10 55.5t26 99t38.5 157.5t30.5 122t24 23t33 -23zM202.5 737q8.5 3 15.5 3t15.5 -5t13.5 -11t16.5 -20.5t17.5 -21.5t20.5 -23t20.5 -23.5t15 -19.5q16 -20 16 -32t-7.5 -18
t-20.5 -6t-36 19t-36 35t-39 49q-28 -14 -58.5 -38t-50.5 -38t-33.5 -14t-23 9t-9.5 27q0 36 69 75q11 6 27 16t26 16t21.5 12t20 9z" />
    <glyph glyph-name="idieresis" unicode="&#xef;" horiz-adv-x="238" 
d="M198 488q17 -23 17 -44q0 -55 -102 -378q-17 -50 -44 -50q-14 0 -23.5 11.5t-9.5 26.5t10 55.5t26 99t38.5 157.5t30.5 122t24 23t33 -23zM273 704q16 0 37 -39t21 -54t-9 -23.5t-18 -8.5q-22 0 -49 26t-27 45t14.5 36.5t30.5 17.5zM122 704q16 0 37 -39t21 -54
t-8.5 -23.5t-17.5 -8.5q-23 0 -49.5 26t-26.5 45.5t14 36.5t30 17z" />
    <glyph glyph-name="eth" unicode="&#xf0;" horiz-adv-x="452" 
d="M281 591q-36 52 -67 52q-8 0 -24.5 -7.5t-25.5 -7.5q-18 0 -18 22.5t25 42.5t52 20q74 0 135 -92q77 30 88 30q23 0 23 -16q0 -19 -85 -59q39 -83 39 -177t-35.5 -182.5t-98 -145t-134.5 -56.5q-51 0 -87.5 45t-36.5 117q0 117 67.5 203.5t158.5 86.5q38 0 75 -35
q-4 60 -25 111q-85 -32 -101 -32q-32 0 -32 18q0 15 23.5 27.5t51.5 22.5t32 12zM162 86q54 0 109 90.5t62 188.5q-30 37 -59 37q-55 0 -105 -67t-50 -166q0 -31 12.5 -57t30.5 -26z" />
    <glyph glyph-name="ntilde" unicode="&#xf1;" horiz-adv-x="532" 
d="M284.5 431q61.5 80 100 80t73 -41t34.5 -87q0 -67 -33 -176q-62 -192 -108 -192q-23 0 -23 30q0 24 22 87q59 167 59 230q0 21 -9.5 36t-18 15t-16.5 -3.5t-17 -12t-17.5 -18t-19.5 -24.5t-20 -28t-22.5 -34t-23 -36.5t-25 -40t-26 -40.5t-27.5 -44t-28.5 -45t-24.5 -35
q-26 -37 -39.5 -37t-33 22.5t-19.5 39.5q0 4 18.5 62t26.5 88q26 97 30 215q3 73 21 73q22 0 43.5 -23t21.5 -50.5t-16.5 -106t-38.5 -146.5q95 162 156.5 242zM188 566q-33 0 -33 33.5t39 74t79 40.5q24 0 42.5 -12t27.5 -26q25 -41 43 -44q17 3 38.5 36.5t40.5 33.5
q25 0 25 -34.5t-32 -71.5t-69 -37q-54 0 -112 88q-19 -9 -34.5 -30t-27.5 -36t-27 -15z" />
    <glyph glyph-name="ograve" unicode="&#xf2;" horiz-adv-x="452" 
d="M181.5 683q-1.5 4 -1.5 16t15 30.5t28.5 18.5t22 -6.5t28 -28t55 -58.5t40 -46.5t4.5 -19t-8.5 -18.5t-17.5 -9t-19 6.5t-29.5 21.5t-30.5 23t-24 17t-19 13t-15 10.5t-13.5 10.5t-9 9.5t-6 9.5zM333 341q0 34 -11 64.5t-32 44.5q-69 -19 -118.5 -106.5t-49.5 -164.5
t38 -96q72 14 122.5 98.5t50.5 159.5zM161.5 460.5q56.5 50.5 116 50.5t99.5 -50.5t40 -123t-35 -148t-96.5 -125t-130.5 -49.5q-51 0 -85 47t-34 119.5t34.5 150.5t91 128.5z" />
    <glyph glyph-name="oacute" unicode="&#xf3;" horiz-adv-x="452" 
d="M333 341q0 34 -11 64.5t-32 44.5q-69 -19 -118.5 -106.5t-49.5 -164.5t38 -96q72 14 122.5 98.5t50.5 159.5zM161.5 460.5q56.5 50.5 116 50.5t99.5 -50.5t40 -123t-35 -148t-96.5 -125t-130.5 -49.5q-51 0 -85 47t-34 119.5t34.5 150.5t91 128.5zM295.5 570.5
q-7.5 8.5 -7.5 22t12.5 29.5t36.5 39.5t39 38t22.5 22.5t17.5 16q18 14 31 14t26 -18.5t13 -33t-2.5 -21.5t-12 -15t-17.5 -13q-34 -23 -53 -35.5t-32 -22.5t-19 -14q-26 -17 -36.5 -17t-18 8.5z" />
    <glyph glyph-name="ocircumflex" unicode="&#xf4;" horiz-adv-x="452" 
d="M333 341q0 34 -11 64.5t-32 44.5q-69 -19 -118.5 -106.5t-49.5 -164.5t38 -96q72 14 122.5 98.5t50.5 159.5zM161.5 460.5q56.5 50.5 116 50.5t99.5 -50.5t40 -123t-35 -148t-96.5 -125t-130.5 -49.5q-51 0 -85 47t-34 119.5t34.5 150.5t91 128.5zM315.5 737
q8.5 3 15.5 3t15.5 -5t13.5 -11t16.5 -20.5t17.5 -21.5t20.5 -23t20.5 -23.5t15 -19.5q16 -20 16 -32t-7.5 -18t-20.5 -6t-36 19t-36 35t-39 49q-28 -14 -58.5 -38t-50.5 -38t-33.5 -14t-23 9t-9.5 27q0 36 69 75q11 6 27 16t26 16t21.5 12t20 9z" />
    <glyph glyph-name="otilde" unicode="&#xf5;" horiz-adv-x="452" 
d="M155 596q0 37 39.5 77.5t79.5 40.5q23 0 41.5 -12t27.5 -26q25 -41 43 -44q17 3 38.5 36.5t40.5 33.5q25 0 25 -34.5t-32 -71.5t-69 -37q-55 0 -111 88q-23 -11 -47.5 -46t-40.5 -35q-35 0 -35 30zM333 341q0 34 -11 64.5t-32 44.5q-69 -19 -118.5 -106.5t-49.5 -164.5
t38 -96q72 14 122.5 98.5t50.5 159.5zM161.5 460.5q56.5 50.5 116 50.5t99.5 -50.5t40 -123t-35 -148t-96.5 -125t-130.5 -49.5q-51 0 -85 47t-34 119.5t34.5 150.5t91 128.5z" />
    <glyph glyph-name="odieresis" unicode="&#xf6;" horiz-adv-x="452" 
d="M333 341q0 34 -11 64.5t-32 44.5q-69 -19 -118.5 -106.5t-49.5 -164.5t38 -96q72 14 122.5 98.5t50.5 159.5zM161.5 460.5q56.5 50.5 116 50.5t99.5 -50.5t40 -123t-35 -148t-96.5 -125t-130.5 -49.5q-51 0 -85 47t-34 119.5t34.5 150.5t91 128.5zM386 704q16 0 37 -39
t21 -54t-8.5 -23.5t-18.5 -8.5q-22 0 -49 26t-27 45t14.5 36.5t30.5 17.5zM235 704q16 0 37 -39t21 -54t-8.5 -23.5t-17.5 -8.5q-22 0 -49 26t-27 45.5t14 36.5t30 17z" />
    <glyph glyph-name="divide" unicode="&#xf7;" horiz-adv-x="600" 
d="M378 445q-25 0 -57 32t-32 54t17.5 43.5t36 21.5t43 -49t24.5 -75q0 -8 -11 -17.5t-21 -9.5zM290 49q-25 0 -57 32t-32 53.5t17.5 43t36 21.5t43 -48.5t24.5 -73.5q0 -8 -11 -18t-21 -10zM606 359q0 -37 -163.5 -58t-340.5 -21q-24 0 -43 20t-19 41t27 21
q168 0 301.5 9.5t169.5 9.5q68 0 68 -22z" />
    <glyph glyph-name="oslash" unicode="&#xf8;" horiz-adv-x="457" 
d="M444 343q0 -117 -86.5 -222.5t-192.5 -105.5q-40 0 -77 34q-33 -34 -48 -34q-20 0 -20 19q0 11 37 58q-21 40 -21 85q0 75 38 152.5t101 129.5t129 52q48 0 84 -34q39 36 63 36t24 -20q0 -15 -36 -56l-12 -14q17 -37 17 -80zM113 167v-5q112 129 161 187.5t67 77.5
q-15 18 -35 23q-72 -8 -132.5 -103.5t-60.5 -179.5zM370 351v9q-166 -186 -236 -262q14 -17 31 -21q53 2 102.5 52t76 112t26.5 110z" />
    <glyph glyph-name="ugrave" unicode="&#xf9;" horiz-adv-x="479" 
d="M392 505q4 6 17.5 6t33 -26t19.5 -50q0 -13 -44 -154t-68 -224q-12 -42 -34 -42q-13 0 -22 11t-9 40t23 105q-42 -68 -91 -112t-89.5 -44t-76.5 38t-36 78q0 95 55.5 237.5t92.5 142.5q17 0 30.5 -16.5t13.5 -31.5t-27 -71q-80 -168 -80 -260q0 -16 10 -26.5t24 -10.5
q38 0 90.5 67t95.5 156t64 165q4 16 8 22zM180.5 683q-1.5 4 -1.5 16t15 30.5t28.5 18.5t22 -6.5t28 -28t55 -58.5t40 -46.5t4.5 -19t-8.5 -18.5t-17.5 -9t-19 6.5t-29.5 21.5t-30.5 23t-24 17t-19 13t-15 10.5t-13.5 10.5t-9 9.5t-6 9.5z" />
    <glyph glyph-name="uacute" unicode="&#xfa;" horiz-adv-x="479" 
d="M472 733.5q13 -18.5 13 -33t-2.5 -21.5t-12 -15t-16.5 -13q-35 -23 -54 -35.5t-32 -22.5t-19 -14q-26 -17 -36.5 -17t-18 8.5t-7.5 22.5t12.5 30t36.5 39.5t38.5 37.5t22.5 22t17 16q17 14 31 14t27 -18.5zM392 505q4 6 17.5 6t33 -26t19.5 -50q0 -13 -44 -154t-68 -224
q-12 -42 -34 -42q-13 0 -22 11t-9 40t23 105q-42 -68 -91 -112t-89.5 -44t-76.5 38t-36 78q0 95 55.5 237.5t92.5 142.5q17 0 30.5 -16.5t13.5 -31.5t-27 -71q-80 -168 -80 -260q0 -16 10 -26.5t24 -10.5q38 0 90.5 67t95.5 156t64 165q4 16 8 22z" />
    <glyph glyph-name="ucircumflex" unicode="&#xfb;" horiz-adv-x="479" 
d="M392 505q4 6 17.5 6t33 -26t19.5 -50q0 -13 -44 -154t-68 -224q-12 -42 -34 -42q-13 0 -22 11t-9 40t23 105q-42 -68 -91 -112t-89.5 -44t-76.5 38t-36 78q0 95 55.5 237.5t92.5 142.5q17 0 30.5 -16.5t13.5 -31.5t-27 -71q-80 -168 -80 -260q0 -16 10 -26.5t24 -10.5
q38 0 90.5 67t95.5 156t64 165q4 16 8 22zM217 587q-20 -14 -33.5 -14t-23 9t-9.5 27q0 36 69 75q11 6 27 16t26 16t21 12q24 12 33.5 12t18 -5t13.5 -11t16.5 -20.5t17.5 -21.5t20.5 -23t20.5 -23.5t15 -19.5q16 -20 16 -32t-7.5 -18t-20.5 -6t-36 19t-36 35t-39 49
q-28 -14 -58.5 -38t-50.5 -38z" />
    <glyph glyph-name="udieresis" unicode="&#xfc;" horiz-adv-x="479" 
d="M392 505q4 6 17.5 6t33 -26t19.5 -50q0 -13 -44 -154t-68 -224q-12 -42 -34 -42q-13 0 -22 11t-9 40t23 105q-42 -68 -91 -112t-89.5 -44t-76.5 38t-36 78q0 95 55.5 237.5t92.5 142.5q17 0 30.5 -16.5t13.5 -31.5t-27 -71q-80 -168 -80 -260q0 -16 10 -26.5t24 -10.5
q38 0 90.5 67t95.5 156t64 165q4 16 8 22zM266 579q-23 0 -49.5 26t-26.5 45.5t14 36.5t30 17t37 -39t21 -54t-8.5 -23.5t-17.5 -8.5zM416 579q-22 0 -49 26t-27 45t14.5 36.5t30.5 17.5t37 -39t21 -54t-8.5 -23.5t-18.5 -8.5z" />
    <glyph glyph-name="yacute" unicode="&#xfd;" horiz-adv-x="469" 
d="M496 733.5q13 -18.5 13 -33t-2.5 -21.5t-12 -15t-16.5 -13q-35 -23 -54 -35.5t-32 -22.5t-19 -14q-26 -17 -36.5 -17t-18 8.5t-7.5 22t12.5 29.5t36.5 39.5t39 38t22.5 22.5t16.5 16q19 14 32 14t26 -18.5zM456.5 487.5q18.5 -23.5 18.5 -52.5q0 -20 -41 -136
t-55.5 -157.5t-39 -110t-47.5 -133.5q-50 -143 -150 -143q-57 0 -109 34.5t-52 71.5q0 14 12.5 31t21.5 17t29 -22q58 -66 99 -66q31 0 56 54.5t47.5 123t25 75.5t6 18t6.5 20q-71 -97 -140 -97q-42 0 -77.5 39t-35.5 92t26 143t61 156t57 66q18 0 33.5 -16.5t15.5 -33.5
t-26 -71q-81 -166 -81 -258q0 -16 10 -26.5t24 -10.5q36 0 86 64t92 152q35 74 73 189q4 11 20 11t34.5 -23.5z" />
    <glyph glyph-name="thorn" unicode="&#xfe;" horiz-adv-x="526" 
d="M218 474q64 29 116.5 29t109 -59t56.5 -122t-51 -119t-119 -85.5t-117.5 -29.5t-77.5 22q-79 -310 -92.5 -310t-32.5 21.5t-19 41.5t43 191q127 511 127 662q0 16 4.5 23t19.5 7t37.5 -29.5t22.5 -66t-27 -176.5zM193 162q74 0 150.5 50.5t76.5 109.5q0 41 -28 68.5
t-74 27.5t-120 -45q-13 -65 -48 -201q30 -10 43 -10z" />
    <glyph glyph-name="ydieresis" unicode="&#xff;" horiz-adv-x="469" 
d="M456.5 487.5q18.5 -23.5 18.5 -52.5q0 -20 -41 -136t-55.5 -157.5t-39 -110t-47.5 -133.5q-50 -143 -150 -143q-57 0 -109 34.5t-52 71.5q0 14 12.5 31t21.5 17t29 -22q58 -66 99 -66q31 0 56 54.5t47.5 123t25 75.5t6 18t6.5 20q-71 -97 -140 -97q-42 0 -77.5 39
t-35.5 92t26 143t61 156t57 66q18 0 33.5 -16.5t15.5 -33.5t-26 -71q-81 -166 -81 -258q0 -16 10 -26.5t24 -10.5q36 0 86 64t92 152q35 74 73 189q4 11 20 11t34.5 -23.5zM290 578q-22 0 -49 26.5t-27 45.5t14.5 36.5t30 17.5t36.5 -39t21 -54t-8.5 -24t-17.5 -9zM440 578
q-22 0 -49 26.5t-27 45.5t15 36.5t30.5 17.5t36.5 -39t21 -54t-8.5 -24t-18.5 -9z" />
    <glyph glyph-name="Amacron" unicode="&#x100;" horiz-adv-x="608" 
d="M564 363q0 -19 -88 -44q8 -104 8 -177q0 -126 -33 -126q-18 0 -27.5 21t-14.5 73q-15 179 -16 188q-146 -38 -193 -52q-88 -230 -104.5 -230t-35 19.5t-18.5 41.5q0 7 58 143q-3 -1 -15 -1t-27.5 13t-15.5 32.5t99 51.5q16 36 32.5 80.5t59 145.5t52 125t37 43.5
t53.5 19.5q31 0 55.5 -99t39.5 -245q28 3 48 3q46 0 46 -26zM236 342q75 20 150 32q-18 171 -35 256q-51 -118 -115 -288zM255 799q-19 0 -36.5 17.5t-17.5 31.5q0 28 176 28q95 0 132.5 -4.5t37.5 -19t-30 -21t-144 -19.5t-118 -13z" />
    <glyph glyph-name="amacron" unicode="&#x101;" horiz-adv-x="472" 
d="M373 655q95 0 132.5 -4.5t37.5 -19t-29.5 -21t-144 -19.5t-117.5 -13q-19 0 -36.5 17t-17.5 32q0 28 175 28zM300 511q45 0 83 -45.5t38 -82t-25 -74.5q12 -15 12 -26q0 -28 -12.5 -96t-15 -89t-4.5 -33.5t-4 -24.5q-5 -25 -19 -25q-36 0 -43 112q-90 -112 -165 -112
q-46 0 -90.5 39.5t-44.5 81.5q0 60 44 148.5t114 157.5t132 69zM346 335q0 93 -36 93q-39 0 -91.5 -55.5t-88.5 -125.5t-36 -111q0 -17 14 -27.5t33 -10.5q47 0 106 63.5t82 154.5q3 15 17 18v1z" />
    <glyph glyph-name="Abreve" unicode="&#x102;" horiz-adv-x="608" 
d="M564 363q0 -19 -88 -44q8 -104 8 -177q0 -126 -33 -126q-18 0 -27.5 21t-14.5 73q-15 179 -16 188q-146 -38 -193 -52q-88 -230 -104.5 -230t-35 19.5t-18.5 41.5q0 7 58 143q-3 -1 -15 -1t-27.5 13t-15.5 32.5t99 51.5q16 36 32.5 80.5t59 145.5t52 125t37 43.5
t53.5 19.5q31 0 55.5 -99t39.5 -245q28 3 48 3q46 0 46 -26zM236 342q75 20 150 32q-18 171 -35 256q-51 -118 -115 -288zM501.5 824.5q-50.5 -36.5 -101 -36.5t-91.5 36t-41 73q0 25 14.5 40t27 15t20.5 -15t15 -33t24 -33t40.5 -15t42.5 9.5t30 20.5q29 31 47 31
q23 0 23 -23q0 -33 -50.5 -69.5z" />
    <glyph glyph-name="abreve" unicode="&#x103;" horiz-adv-x="472" 
d="M526 696q23 0 23 -23q0 -33 -51 -69.5t-101.5 -36.5t-91 35.5t-40.5 73.5q0 25 14.5 40t30.5 15q11 0 20 -24t27 -48t48.5 -24t52.5 15.5t38 30.5t30 15zM300 511q45 0 83 -45.5t38 -82t-25 -74.5q12 -15 12 -26q0 -28 -12.5 -96t-15 -89t-4.5 -33.5t-4 -24.5
q-5 -25 -19 -25q-36 0 -43 112q-90 -112 -165 -112q-46 0 -90.5 39.5t-44.5 81.5q0 60 44 148.5t114 157.5t132 69zM346 335q0 93 -36 93q-39 0 -91.5 -55.5t-88.5 -125.5t-36 -111q0 -17 14 -27.5t33 -10.5q47 0 106 63.5t82 154.5q3 15 17 18v1z" />
    <glyph glyph-name="Aogonek" unicode="&#x104;" horiz-adv-x="608" 
d="M564 363q0 -19 -88 -44q8 -104 8 -182.5t-13 -105.5v-5q0 -22 -47.5 -61.5t-47.5 -61.5q0 -19 39 -19q12 0 28 6t25 6t18 -9t9 -20q0 -24 -38.5 -37t-74 -13t-61 19.5t-25.5 52t42.5 88t80.5 72.5q-5 18 -10 61q-15 179 -16 188q-146 -38 -193 -52q-88 -230 -104.5 -230
t-35 19.5t-18.5 41.5q0 7 58 143q-3 -1 -15 -1t-27.5 13t-15.5 32.5t99 51.5q16 36 32.5 80.5t59 145.5t52 125t37 43.5t53.5 19.5q31 0 55.5 -99t39.5 -245q28 3 48 3q46 0 46 -26zM236 342q75 20 150 32q-18 171 -35 256q-51 -118 -115 -288z" />
    <glyph glyph-name="aogonek" unicode="&#x105;" horiz-adv-x="472" 
d="M275 -86q0 -19 39 -19q12 0 28 6t25 6t18 -8.5t9 -19.5q0 -25 -38 -37.5t-74 -12.5t-61.5 19t-25.5 45q0 40 43 95t82 72q-9 33 -10 67q-90 -112 -165 -112q-46 0 -90.5 39.5t-44.5 81.5q0 60 44 148.5t114 157.5t132 69q45 0 83 -45.5t38 -82t-25 -74.5q12 -15 12 -26
q0 -28 -12.5 -96.5t-15.5 -90.5q-5 -47 -10 -63q-3 -21 -49 -59t-46 -60zM346 335q0 93 -36 93q-39 0 -91.5 -55.5t-88.5 -125.5t-36 -111q0 -17 14 -27.5t33 -10.5q47 0 106 63.5t82 154.5q3 15 17 18v1z" />
    <glyph glyph-name="Cacute" unicode="&#x106;" horiz-adv-x="685" 
d="M490 792q-8 8 -8 21.5t12 29t37 40t39.5 38.5t22.5 22t17 15q17 15 31 15t27 -18.5t13 -33t-2.5 -21.5t-12 -15t-16.5 -13q-35 -23 -54.5 -35.5t-32.5 -22t-19 -14t-14 -8.5q-12 -8 -22 -8t-18 8zM471 718q25 0 52.5 -33t27.5 -54.5t-7 -21.5t-28 7.5t-39 7.5
q-52 0 -127.5 -65t-133 -164.5t-57.5 -183.5q0 -46 28 -71.5t74.5 -25.5t95.5 13.5t79 30.5q81 43 89 43q17 0 17 -22.5t-46 -60t-114 -67.5t-122 -30q-70 0 -132 60.5t-62 133.5q0 94 61.5 212.5t158 204.5t185.5 86z" />
    <glyph glyph-name="cacute" unicode="&#x107;" horiz-adv-x="447" 
d="M86.5 60.5q-51.5 45.5 -51.5 108t42 144.5t109 140t130 58q41 0 71.5 -36.5t30.5 -60.5t-16 -24q-12 0 -36 18t-43 18q-54 0 -126 -95t-72 -166q0 -31 19.5 -49t63 -18t80 10.5t56.5 21t31 10.5q19 0 19 -19q0 -29 -69.5 -67.5t-128 -38.5t-110 45.5zM302.5 570.5
q-7.5 8.5 -7.5 22.5t12.5 30t36.5 39.5t38.5 37.5t22.5 22t17 16q17 14 31 14t27 -18.5t13 -33t-2.5 -21.5t-12 -15t-16.5 -13q-35 -23 -54 -35.5t-32 -22.5t-19 -14q-25 -17 -36 -17t-18.5 8.5z" />
    <glyph glyph-name="Ccaron" unicode="&#x10c;" horiz-adv-x="692" 
d="M646 943q29 0 29 -26q0 -14 -11 -25t-40 -29.5t-41 -27.5t-33 -27q-40 -34 -53 -34q-20 0 -85 64.5t-65 101.5q0 16 8.5 26.5t23 10.5t28.5 -17t39 -49.5t57 -57.5q50 46 88.5 68t54.5 22zM471 718q25 0 52.5 -33t27.5 -54.5t-7 -21.5t-28 7.5t-39 7.5q-52 0 -127.5 -65
t-133 -164.5t-57.5 -183.5q0 -46 28 -71.5t74.5 -25.5t95.5 13.5t79 30.5q81 43 89 43q17 0 17 -22.5t-46 -60t-114 -67.5t-122 -30q-70 0 -132 60.5t-62 133.5q0 94 61.5 212.5t158 204.5t185.5 86z" />
    <glyph glyph-name="ccaron" unicode="&#x10d;" horiz-adv-x="447" 
d="M86.5 60.5q-51.5 45.5 -51.5 108t42 144.5t109 140t130 58q41 0 71.5 -36.5t30.5 -60.5t-16 -24q-12 0 -36 18t-43 18q-54 0 -126 -95t-72 -166q0 -31 19.5 -49t63 -18t80 10.5t56.5 21t31 10.5q19 0 19 -19q0 -29 -69.5 -67.5t-128 -38.5t-110 45.5zM458 722
q30 0 30 -26q0 -14 -11.5 -25.5t-40.5 -29.5t-41 -27t-32 -26.5t-32 -26t-22 -8.5q-20 0 -85 64.5t-65 101.5q0 16 9 26.5t23 10.5t28 -17t39 -49.5t57 -57.5q50 46 88.5 68t54.5 22z" />
    <glyph glyph-name="Dcaron" unicode="&#x10e;" horiz-adv-x="645" 
d="M604 889q29 0 29 -25q0 -14 -11.5 -25.5t-40.5 -29.5t-41 -27t-32 -26.5t-32 -26t-22 -8.5q-20 0 -85 64.5t-65 101.5q0 15 9 25.5t23.5 10.5t28.5 -17t39.5 -49.5t56.5 -57.5q50 46 88.5 68t54.5 22zM151 721q94 0 200.5 -49t183.5 -135.5t77 -179.5q0 -61 -84.5 -143.5
t-195.5 -141t-184 -58.5q-19 0 -43.5 32.5t-24.5 66t58 241.5t63 274q-32 13 -51 34t-19 40t20 19zM520 368q0 62 -74 134.5t-172 104.5q5 -18 5 -42.5t-17.5 -91.5t-63.5 -224q-19 -66 -31 -145q69 9 154.5 60.5t142 110.5t56.5 93z" />
    <glyph glyph-name="dcaron" unicode="&#x10f;" horiz-adv-x="732" 
d="M622 762q17 14 40 14t46.5 -21.5t23.5 -51.5q0 -51 -50.5 -94.5t-89.5 -43.5q-22 0 -22 17q0 14 40.5 46t46.5 56q-7 11 -29.5 22t-22.5 26.5t17 29.5zM485 791q17 0 40 -29.5t23 -55.5t-24.5 -148t-57.5 -251q-72 -292 -95 -292q-14 0 -30.5 17t-16.5 33.5t8 51.5
q-98 -102 -173 -102q-44 0 -79 40t-35 83q0 62 33.5 147.5t96.5 155.5t133 70t100 -85q51 220 56 335q0 30 21 30zM375 300q0 54 -18.5 91t-44.5 37q-43 0 -87.5 -53t-71 -121.5t-26.5 -118.5q0 -18 13 -29t31 -11q38 0 105 56t97 132l2 9v8z" />
    <glyph glyph-name="Dcroat" unicode="&#x110;" horiz-adv-x="625" 
d="M153.5 662q-19.5 21 -19.5 40t20 19q70 0 151 -30t150 -78.5t115 -117t46 -134t-84.5 -148t-195.5 -141t-185 -58.5q-19 0 -43.5 32.5t-24.5 63.5t36 164q-50 -6 -64.5 -6t-30.5 11t-16 31q0 31 108 42l26 3q58 214 62 273q-31 13 -50.5 34zM524 368q0 62 -74.5 134.5
t-172.5 104.5q5 -18 5 -34q0 -45 -46 -206q40 4 43 4q34 0 56.5 -11.5t22.5 -31.5q0 -14 -34 -22q-41 -11 -111 -18l-11 -39q-16 -49 -32 -145q69 9 154.5 60.5t142.5 110.5t57 93z" />
    <glyph glyph-name="dcroat" unicode="&#x111;" horiz-adv-x="508" 
d="M371 15q-14 0 -30.5 17t-16.5 33t8 51q-101 -101 -173 -101q-44 0 -79 40t-35 83q0 62 33.5 147.5t96.5 155.5t133 70t100 -84q21 89 34 159q-23 -4 -41 -3.5t-35.5 17.5t-17.5 31q0 23 106 27q9 65 9.5 99t21.5 34q17 0 40 -29.5t23 -57.5q0 -12 -6 -45q85 0 118 -4.5
t33 -19t-30 -21t-125 -16.5l-7 -1q-22 -120 -65 -290q-72 -292 -95 -292zM375 300q0 54 -18.5 91t-44.5 37q-43 0 -87.5 -53t-71 -121.5t-26.5 -118.5q0 -18 13 -29t31 -11q37 0 104 55.5t97 130.5l3 12v7z" />
    <glyph glyph-name="Emacron" unicode="&#x112;" horiz-adv-x="585" 
d="M208 333q-54 -171 -54 -207q0 -12 7.5 -19.5t19.5 -7.5q115 0 254 37q45 12 52 12q15 0 15 -21q0 -36 -110.5 -74t-213.5 -38q-46 0 -80.5 27t-34.5 68t29.5 140t59.5 211t30 189q0 11 4 23q17 37 218 37t201 -29q0 -20 -43 -27q-36 -7 -95.5 -12.5t-83.5 -8t-116 -18.5
v-3q0 -68 -37 -205q6 -1 40.5 -1t92.5 5t87.5 5t29.5 -14q0 -35 -82 -52t-190 -17zM293 799q-19 0 -36.5 17.5t-17.5 31.5q0 28 175 28q95 0 132.5 -4.5t37.5 -19t-30 -21t-144 -19.5t-117 -13z" />
    <glyph glyph-name="emacron" unicode="&#x113;" horiz-adv-x="438" 
d="M297 655q95 0 132.5 -4.5t37.5 -19t-30 -21t-144 -19.5t-117 -13q-20 0 -37.5 17t-17.5 32q0 28 176 28zM151.5 458q60.5 53 119.5 53t107.5 -56t48.5 -109.5t-58 -87t-130.5 -33.5t-130.5 16q-14 -44 -14 -78.5t21.5 -53.5t70.5 -19t101.5 17.5t57.5 17.5q26 0 26 -20
q0 -27 -60.5 -58.5t-118.5 -31.5q-78 0 -127.5 46.5t-49.5 117.5t38 148.5t98.5 130.5zM130 297q45 -8 94 -8t87 16.5t38 43.5t-24.5 55t-48.5 28q-38 0 -77.5 -38.5t-68.5 -96.5z" />
    <glyph glyph-name="Edotaccent" unicode="&#x116;" horiz-adv-x="585" 
d="M208 333q-54 -171 -54 -207q0 -12 7.5 -19.5t19.5 -7.5q115 0 254 37q45 12 52 12q15 0 15 -21q0 -36 -110.5 -74t-213.5 -38q-46 0 -80.5 27t-34.5 68t29.5 140t59.5 211t30 189q0 11 4 23q17 37 218 37t201 -29q0 -20 -43 -27q-36 -7 -95.5 -12.5t-83.5 -8t-116 -18.5
v-3q0 -68 -37 -205q6 -1 40.5 -1t92.5 5t87.5 5t29.5 -14q0 -35 -82 -52t-190 -17zM441 788q-21 0 -49.5 27t-28.5 46.5t15.5 38.5t32 19t37.5 -42.5t21 -64.5q0 -7 -9.5 -15.5t-18.5 -8.5z" />
    <glyph glyph-name="edotaccent" unicode="&#x117;" horiz-adv-x="438" 
d="M369 258.5q-58 -33.5 -130.5 -33.5t-130.5 16q-14 -44 -14 -78.5t21.5 -53.5t70.5 -19t101.5 17.5t57.5 17.5q26 0 26 -20q0 -27 -60.5 -58.5t-118.5 -31.5q-78 0 -127.5 46.5t-49.5 117.5t38 148.5t98.5 130.5t119.5 53t107.5 -56t48.5 -109.5t-58 -87zM276 432
q-38 0 -77.5 -38.5t-68.5 -96.5q45 -8 94 -8t87 16.5t38 43.5t-24.5 55t-48.5 28zM323 567q-21 0 -49.5 27t-28.5 46.5t16 38.5t32 19t37 -42.5t21 -64.5q0 -7 -9.5 -15.5t-18.5 -8.5z" />
    <glyph glyph-name="Eogonek" unicode="&#x118;" horiz-adv-x="585" 
d="M208 333q-54 -171 -54 -207q0 -12 7.5 -19.5t19.5 -7.5q115 0 254 37q45 12 50 12t9 -2q26 -4 26 -26t-47.5 -61.5t-47.5 -61.5q0 -19 39 -19q12 0 28 5.5t25 5.5t18 -8.5t9 -19.5q0 -24 -39 -37t-74 -13t-61 19.5t-26 47t26 68.5q-103 -31 -192 -31q-46 0 -80.5 27
t-34.5 68t29.5 140t59.5 211t30 189q0 11 4 23q17 37 218 37t201 -29q0 -20 -43 -27q-36 -7 -95.5 -12.5t-83.5 -8t-116 -18.5v-3q0 -68 -37 -205q6 -1 40.5 -1t92.5 5t87.5 5t29.5 -14q0 -35 -82 -52t-190 -17z" />
    <glyph glyph-name="eogonek" unicode="&#x119;" horiz-adv-x="438" 
d="M345 125h4q12 0 22 -7.5t10 -19.5q0 -23 -47 -62.5t-47 -61.5q0 -19 38 -19q12 0 28 6t25 6t18 -9t9 -20q0 -24 -38 -36.5t-74 -12.5t-61.5 19t-25.5 45.5t23 64.5q-19 -3 -37 -3q-78 0 -127.5 46.5t-49.5 117.5t38 148.5t98.5 130.5t119.5 53t107.5 -56t48.5 -109.5
t-58 -87t-130.5 -33.5t-130.5 16q-14 -44 -14 -78.5t21.5 -53.5t70.5 -19t101.5 17.5t57.5 17.5zM276 432q-38 0 -77.5 -38.5t-68.5 -96.5q45 -8 94 -8t87 16.5t38 43.5t-24.5 55t-48.5 28z" />
    <glyph glyph-name="Ecaron" unicode="&#x11a;" horiz-adv-x="585" 
d="M208 333q-54 -171 -54 -207q0 -12 7.5 -19.5t19.5 -7.5q115 0 254 37q45 12 52 12q15 0 15 -21q0 -36 -110.5 -74t-213.5 -38q-46 0 -80.5 27t-34.5 68t29.5 140t59.5 211t30 189q0 11 4 23q17 37 218 37t201 -29q0 -20 -43 -27q-36 -7 -95.5 -12.5t-83.5 -8t-116 -18.5
v-3q0 -68 -37 -205q6 -1 40.5 -1t92.5 5t87.5 5t29.5 -14q0 -35 -82 -52t-190 -17zM406 774q-20 0 -85 64.5t-65 101.5q0 16 8.5 26.5t23 10.5t28.5 -17t39 -49.5t57 -57.5q50 46 88.5 68t54.5 22q29 0 29 -26q0 -14 -11 -25t-40 -29.5t-41 -27.5t-32 -26.5t-32 -26
t-22 -8.5z" />
    <glyph glyph-name="ecaron" unicode="&#x11b;" horiz-adv-x="438" 
d="M438 722q29 0 29 -26q0 -14 -11.5 -25.5t-40.5 -29.5t-41 -27t-32 -26.5t-32 -26t-22 -8.5q-20 0 -85 64.5t-65 101.5q0 16 9 26.5t23 10.5t28.5 -17t39.5 -49.5t57 -57.5q50 46 88.5 68t54.5 22zM151.5 458q60.5 53 119.5 53t107.5 -56t48.5 -109.5t-58 -87
t-130.5 -33.5t-130.5 16q-14 -44 -14 -78.5t21.5 -53.5t70.5 -19t101.5 17.5t57.5 17.5q26 0 26 -20q0 -27 -60.5 -58.5t-118.5 -31.5q-78 0 -127.5 46.5t-49.5 117.5t38 148.5t98.5 130.5zM130 297q45 -8 94 -8t87 16.5t38 43.5t-24.5 55t-48.5 28q-38 0 -77.5 -38.5
t-68.5 -96.5z" />
    <glyph glyph-name="Gbreve" unicode="&#x11e;" horiz-adv-x="611" 
d="M654 910q23 0 23 -23q0 -33 -50.5 -69.5t-101 -36.5t-91.5 36t-41 73q0 25 14.5 40t27 15t20.5 -15t15 -33t24 -33t43.5 -15t48.5 15.5t38 30.5t30 15zM453 717q28 0 55 -33.5t27 -54t-11 -20.5q-3 0 -22 7.5t-41 7.5q-63 0 -139.5 -69t-130.5 -172.5t-54 -192.5
q0 -36 23 -61.5t54 -25.5q48 0 112.5 52.5t119.5 135.5q-56 -15 -83 -15t-46 14.5t-19 27.5q0 16 43 25.5t108 9.5q36 0 58.5 -30.5t22.5 -71t-50 -190.5t-75.5 -150t-25.5 29q0 28 14.5 76t30.5 98.5t26 82.5q-49 -83 -111 -131.5t-120.5 -48.5t-115.5 54.5t-57 119.5
q0 101 64 225t161 212.5t182 88.5z" />
    <glyph glyph-name="gbreve" unicode="&#x11f;" horiz-adv-x="471" 
d="M498 696q23 0 23 -23q0 -33 -50.5 -69.5t-101 -36.5t-91.5 36t-41 73q0 25 14.5 40t27 15t20.5 -15t15 -33t24 -33t43.5 -15t49 15.5t38.5 30.5t29 15zM423 285q0 -40 -35 -91q-27 -61 -58 -175.5t-52 -163.5q-42 -102 -129 -102q-70 0 -119 38.5t-49 76.5q0 15 10 31.5
t20.5 16.5t23 -15t24 -32.5t35 -32.5t45.5 -15t33 6.5t21 21t17 29t15.5 41t13.5 45.5t14 53.5t15 55.5q-78 -58 -126.5 -58t-85 39.5t-36.5 83.5q0 61 40 148t106.5 156t130.5 69q41 0 69 -31q46 -51 46 -145q0 -12 -1 -17q12 -15 12 -33zM101 136q0 -17 11 -27.5t28 -10.5
q49 0 117 59.5t97 137.5q-4 17 -7 42.5t-6 41.5t-13 32.5t-26 16.5q-58 0 -129.5 -112t-71.5 -180z" />
    <glyph glyph-name="uni0122" unicode="&#x122;" horiz-adv-x="611" 
d="M461 624q-63 0 -139.5 -69t-130.5 -172.5t-54 -192.5q0 -36 23 -61.5t54 -25.5q48 0 112.5 52.5t119.5 135.5q-56 -15 -83 -15t-46 14.5t-19 27.5q0 16 43 25.5t108 9.5q36 0 58.5 -30.5t22.5 -71t-50 -190.5t-75.5 -150t-25.5 29q0 28 14.5 76t30.5 98.5t26 82.5
q-49 -83 -111 -131.5t-120.5 -48.5t-115.5 54.5t-57 119.5q0 101 64 225t161 212.5t182 88.5q28 0 55 -33.5t27 -54t-11 -20.5q-3 0 -22 7.5t-41 7.5zM164 -45q17 14 40.5 14t47 -21.5t23.5 -50.5q0 -51 -51 -95t-90 -44q-22 0 -22 18q0 13 40.5 45.5t46.5 56.5
q-6 10 -29 21.5t-23 26.5t17 29z" />
    <glyph glyph-name="uni0123" unicode="&#x123;" horiz-adv-x="471" 
d="M423 285q0 -36 -32 -84q-22 -48 -42 -118.5t-34.5 -123t-34.5 -102.5q-43 -104 -131 -104q-70 0 -119 38.5t-49 76.5q0 15 10 31.5t20.5 16.5t23 -15t24 -32.5t35 -32.5t45.5 -15t33.5 6.5t21 21t17 29.5t15.5 41t13.5 46t14.5 54t15 56q-80 -60 -128 -60t-84.5 39.5
t-36.5 83.5q0 61 40 148t106.5 156t130.5 69q41 0 68 -30q47 -52 47 -143q0 -14 -1 -20q12 -15 12 -33zM101 136q0 -18 11 -28t28 -10q50 0 118 58.5t96 138.5q-2 11 -5.5 35t-5.5 36.5t-7 29.5q-9 32 -34 32q-58 0 -129.5 -112t-71.5 -180zM375.5 569q-16.5 -14 -40 -14
t-47 21.5t-23.5 51.5q0 51 50.5 94.5t90.5 43.5q22 0 22 -17q0 -13 -40.5 -45.5t-47.5 -56.5q7 -11 29.5 -22.5t22.5 -26.5t-16.5 -29z" />
    <glyph glyph-name="Imacron" unicode="&#x12a;" horiz-adv-x="310" 
d="M398.5 871.5q37.5 -4.5 37.5 -19t-30 -21t-144 -19.5t-117 -13q-20 0 -37 17.5t-17 31.5q0 28 175 28q95 0 132.5 -4.5zM87.5 43q-19.5 24 -19.5 44t59.5 279.5t60.5 321.5q0 17 4.5 23.5t19 6.5t38 -31t23.5 -66.5t-72 -328.5q-7 -27 -19 -77.5t-19 -77.5t-15 -59
q-17 -59 -29 -59t-31.5 24z" />
    <glyph glyph-name="imacron" unicode="&#x12b;" horiz-adv-x="238" 
d="M330.5 650.5q37.5 -4.5 37.5 -19t-30 -21t-144 -19.5t-117 -13q-19 0 -36.5 17t-17.5 32q0 28 175 28q95 0 132.5 -4.5zM198 488q17 -23 17 -44q0 -55 -102 -378q-17 -50 -44 -50q-14 0 -23.5 11.5t-9.5 26.5t10 55.5t26 99t38.5 157.5t30.5 122t24 23t33 -23z" />
    <glyph glyph-name="Iogonek" unicode="&#x12e;" horiz-adv-x="310" 
d="M40 -78q0 -19 39 -19q11 0 27 5.5t25.5 5.5t18.5 -8.5t9 -19.5q0 -24 -38.5 -37t-74 -13t-61.5 19.5t-26 51t38 83.5t77 74q-6 10 -6 26.5t59.5 276t60.5 321.5q0 17 4.5 23.5t19 6.5t38 -31t23.5 -66.5t-63.5 -293.5t-75.5 -288q-3 -20 -48.5 -57.5t-45.5 -59.5z" />
    <glyph glyph-name="iogonek" unicode="&#x12f;" horiz-adv-x="238" 
d="M69 -89.5q16 5.5 25.5 5.5t18.5 -8.5t9 -19.5q0 -24 -39 -37t-74 -13t-61 19t-26 50.5t38 83.5t77 74q3 23 27.5 112.5t46.5 188.5t30 122t24 23t33 -23t17 -44q0 -55 -102 -378q-7 -23 -21 -39q-8 -13 -48.5 -48t-40.5 -56q0 -18 39 -18q11 0 27 5.5z" />
    <glyph glyph-name="Idotaccent" unicode="&#x130;" horiz-adv-x="310" 
d="M293 788q-22 0 -50 26.5t-28 46.5t15.5 39t32 19t37 -42.5t20.5 -64.5q0 -7 -9 -15.5t-18 -8.5zM87.5 43q-19.5 24 -19.5 44t59.5 279.5t60.5 321.5q0 17 4.5 23.5t19 6.5t38 -31t23.5 -66.5t-72 -328.5q-7 -27 -19 -77.5t-19 -77.5t-15 -59q-17 -59 -29 -59t-31.5 24z
" />
    <glyph glyph-name="dotlessi" unicode="&#x131;" horiz-adv-x="260" 
d="M199 488q17 -23 17 -44q0 -57 -103 -378q-15 -50 -43 -50q-14 0 -24 11.5t-10 26t10.5 56t26.5 99t38.5 157t30.5 122.5t24 23t33 -23z" />
    <glyph glyph-name="uni0136" unicode="&#x136;" horiz-adv-x="602" 
d="M105 20q-14 0 -32.5 23.5t-18.5 49t65 277.5t65 316q0 18 4 25t18.5 7t34.5 -31t20 -71t-52 -237q91 124 192 228.5t128 104.5q20 0 37.5 -13t17.5 -25.5t-47.5 -56t-127.5 -121.5t-137 -156q0 -41 22 -89q35 -80 144 -133q47 -23 73.5 -39t26.5 -33q0 -26 -39 -26
t-82 16.5t-86 46.5t-78.5 79.5t-48.5 108.5q-31 -55 -58 -145q-33 -106 -40 -106h-1zM205 -45q17 14 40 14t46.5 -21.5t23.5 -50.5q0 -51 -50.5 -95t-89.5 -44q-22 0 -22 18q0 13 40.5 45.5t46.5 56.5q-6 10 -29 21.5t-23 26.5t17 29z" />
    <glyph glyph-name="uni0137" unicode="&#x137;" horiz-adv-x="495" 
d="M94 15q-15 0 -33 23.5t-18 39t32.5 129t65 272.5t32.5 284q0 15 5 21.5t19.5 6.5t36.5 -29.5t22 -57.5q0 -89 -36 -249t-86 -304q113 161 195.5 260.5t102 99.5t37.5 -19t18 -35q0 -9 -89 -94q-33 -32 -60.5 -75.5t-27.5 -79.5t21.5 -66.5t47.5 -46t47.5 -30.5t21.5 -25
q0 -25 -40 -25t-94.5 44.5t-67.5 99.5l-7 19q-69 -93 -99.5 -128t-45.5 -35zM191 -38q17 14 40.5 14t47 -21.5t23.5 -51.5q0 -51 -50.5 -94.5t-90.5 -43.5q-22 0 -22 17q0 14 40.5 46t46.5 56q-7 11 -29.5 22.5t-22.5 26.5t17 29z" />
    <glyph glyph-name="Lacute" unicode="&#x139;" horiz-adv-x="546" 
d="M310.5 792q-7.5 8 -7.5 21.5t12.5 29t49.5 53.5q24 22 40.5 38.5t25.5 23.5q17 15 30.5 15t26.5 -18.5t13 -32.5t-2.5 -20.5t-6 -11t-13.5 -12t-17 -12t-24.5 -16t-28.5 -19t-25 -17.5t-19.5 -14t-12.5 -8q-13 -8 -23.5 -8t-18 8zM203.5 718q4.5 7 19 7t36.5 -25t22 -53
q0 -70 -86 -354q-43 -138 -43 -165t26 -27q113 0 248 37q43 12 51.5 12t11.5 -3.5t3 -13.5q0 -42 -102.5 -79t-208.5 -37q-48 0 -83.5 28t-35.5 66.5t68.5 276.5t68.5 307q0 16 4.5 23z" />
    <glyph glyph-name="lacute" unicode="&#x13a;" horiz-adv-x="234" 
d="M227 707q0 -188 -78 -488q-50 -204 -71 -204q-13 0 -32 22t-19 34t29 124t58 275.5t29 294.5q0 26 19 26q15 0 40 -28.5t25 -55.5zM218.5 810.5q-7.5 8.5 -7.5 18.5t2.5 17t12.5 19q18 20 38 39.5t35 34.5q43 43 52.5 48t15.5 5q16 0 29 -19t13 -33.5t-2.5 -21t-12 -14.5
t-17 -13t-28 -18t-31.5 -21t-23 -16.5t-17 -12.5t-12 -9t-12 -7q-11 -5 -19.5 -5t-16 8.5z" />
    <glyph glyph-name="uni013B" unicode="&#x13b;" horiz-adv-x="546" 
d="M203.5 718q4.5 7 19 7t36.5 -25t22 -53q0 -70 -86 -354q-43 -138 -43 -165t26 -27q113 0 248 37q43 12 51.5 12t11.5 -3.5t3 -13.5q0 -42 -102.5 -79t-208.5 -37q-48 0 -83.5 28t-35.5 66.5t68.5 276.5t68.5 307q0 16 4.5 23zM127 -224q0 13 40.5 45.5t46.5 56.5
q-6 10 -29 21.5t-23 26.5t17 29t40 14t47 -21.5t24 -50.5q0 -51 -51 -95t-90 -44q-22 0 -22 18z" />
    <glyph glyph-name="uni013C" unicode="&#x13c;" horiz-adv-x="234" 
d="M227 707q0 -188 -78 -488q-50 -204 -70 -204q-14 0 -33 22t-19 34t29 124t58 275.5t29 294.5q0 26 20 26q15 0 39.5 -28.5t24.5 -55.5zM119 -132q0 -51 -50.5 -94.5t-89.5 -43.5q-23 0 -23 17q0 14 40.5 46.5t47.5 55.5q-8 11 -30 22.5t-22 26.5t16.5 29t40 14t47 -21.5
t23.5 -51.5z" />
    <glyph glyph-name="Lcaron" unicode="&#x13d;" horiz-adv-x="546" 
d="M203.5 718q4.5 7 19 7t36.5 -25t22 -53q0 -70 -86 -354q-43 -138 -43 -165t26 -27q113 0 248 37q43 12 51.5 12t11.5 -3.5t3 -13.5q0 -42 -102.5 -79t-208.5 -37q-48 0 -83.5 28t-35.5 66.5t68.5 276.5t68.5 307q0 16 4.5 23zM334 526q0 13 40.5 45.5t46.5 56.5
q-8 11 -30 22t-22 26.5t16.5 29.5t40 14t47 -21.5t23.5 -51.5q0 -51 -50.5 -95t-89.5 -44q-22 0 -22 18z" />
    <glyph glyph-name="lcaron" unicode="&#x13e;" horiz-adv-x="448" 
d="M227 707q0 -188 -78 -488q-50 -204 -70 -204q-14 0 -33 22t-19 34t29 124t58 275.5t29 294.5q0 26 20 26q15 0 39.5 -28.5t24.5 -55.5zM423 703q0 -51 -50.5 -94.5t-90.5 -43.5q-22 0 -22 17q0 14 40.5 46t46.5 56q-7 11 -29.5 22.5t-22.5 26.5t17 29t40 14t47 -21.5
t24 -51.5z" />
    <glyph glyph-name="Lslash" unicode="&#x141;" horiz-adv-x="514" 
d="M219 373q-8 -26 -37.5 -122t-29.5 -123t26 -27q113 0 248 37q43 12 51.5 12t11.5 -3.5t3 -13.5q0 -42 -102.5 -79t-208.5 -37q-48 0 -83.5 28t-35.5 65.5t55 229.5q-39 -12 -53 -12t-31.5 13t-17.5 25q0 21 125 56q59 206 59 273q0 16 4.5 23t19 7t36.5 -25t22 -53
q0 -54 -41 -201q79 19 104.5 19t25.5 -14.5t-28 -28.5q-20 -10 -123 -49z" />
    <glyph glyph-name="lslash" unicode="&#x142;" horiz-adv-x="362" 
d="M261 461q77 18 100 18t23 -15t-28.5 -29t-106.5 -42q-21 -103 -40 -174q-50 -204 -70 -204q-14 0 -33 22t-19 34t9 49q41 160 57 238q-49 -17 -62.5 -17t-31.5 13.5t-18 25.5q0 20 128 58q34 188 34 327q0 26 20 26q15 0 39.5 -28.5t24.5 -55.5q0 -92 -26 -246z" />
    <glyph glyph-name="Nacute" unicode="&#x143;" horiz-adv-x="677" 
d="M408.5 792q-7.5 8 -7.5 22t12.5 30t36.5 39.5t38.5 37.5t22.5 22t17 15q17 15 31 15t27 -18.5t13 -33t-2.5 -21.5t-12 -15t-16.5 -13q-72 -48 -91.5 -62t-26.5 -18q-13 -8 -23.5 -8t-18 8zM562 680q2 43 20.5 43t40.5 -23t22 -41q0 -82 -25.5 -233t-68 -280t-80.5 -129
q-13 0 -29.5 13t-25.5 32q-30 70 -177 444q-30 -116 -66.5 -262.5t-48.5 -186.5t-21 -40q-13 0 -31.5 22.5t-18.5 46.5t65 281.5t67 321.5q0 32 17 32q11 0 30.5 -18.5t28.5 -40.5q161 -418 204 -512q65 172 87 411q10 110 10 119z" />
    <glyph glyph-name="nacute" unicode="&#x144;" horiz-adv-x="532" 
d="M284.5 431q61.5 80 100 80t73 -41t34.5 -87q0 -67 -33 -176q-62 -192 -108 -192q-23 0 -23 30q0 24 22 87q59 167 59 230q0 21 -9.5 36t-18 15t-16.5 -3.5t-17 -12t-17.5 -18t-19.5 -24.5t-20 -28t-22.5 -34t-23 -36.5t-25 -40t-26 -40.5t-27.5 -44t-28.5 -45t-24.5 -35
q-26 -37 -39.5 -37t-33 22.5t-19.5 39.5q0 4 18.5 62t26.5 88q26 97 30 215q3 73 21 73q22 0 43.5 -23t21.5 -50.5t-16.5 -106t-38.5 -146.5q95 162 156.5 242zM323 563.5q-5 -1.5 -12.5 -1.5t-15.5 8.5t-8 22t12.5 29.5t37 40t39 38t22.5 22t17 16q17 14 31 14t27 -18.5
t13 -33t-2.5 -21.5t-12 -15t-17.5 -13q-95 -64 -103 -70.5t-15.5 -11t-12.5 -6z" />
    <glyph glyph-name="uni0145" unicode="&#x145;" horiz-adv-x="677" 
d="M562 680q2 43 20.5 43t40.5 -23t22 -41q0 -82 -25.5 -233t-68 -280t-80.5 -129q-13 0 -29.5 13t-25.5 32q-30 70 -177 444q-30 -116 -66.5 -262.5t-48.5 -186.5t-21 -40q-13 0 -31.5 22.5t-18.5 46.5t65 281.5t67 321.5q0 32 17 32q11 0 30.5 -18.5t28.5 -40.5
q161 -418 204 -512q65 172 87 411q10 110 10 119zM169 -224q0 13 40.5 45.5t47.5 56.5q-7 10 -29.5 21.5t-22.5 26.5t16.5 29t40 14t47 -21.5t23.5 -50.5q0 -51 -50.5 -95t-90.5 -44q-22 0 -22 18z" />
    <glyph glyph-name="uni0146" unicode="&#x146;" horiz-adv-x="532" 
d="M285.5 431.5q60.5 79.5 99 79.5t73 -41t34.5 -87q0 -72 -33 -176q-60 -192 -108 -192q-22 0 -22 30q0 21 21.5 85.5t40 127t18.5 94t-9.5 46.5t-19 15t-19.5 -6t-22.5 -20t-23.5 -27.5t-27.5 -38.5t-27.5 -42.5t-32 -50.5t-32 -50t-29 -46t-28.5 -45t-23.5 -35
q-25 -37 -39.5 -37t-33.5 22.5t-19 39.5q0 5 7 27q19 58 42 143.5t25 194.5q3 73 21 73q22 0 44 -23t22 -50.5t-16.5 -106t-38.5 -146.5q96 163 156.5 242.5zM165 -38q17 14 40 14t46.5 -21.5t23.5 -51.5q0 -51 -50.5 -94.5t-89.5 -43.5q-22 0 -22 17q0 14 40.5 46t46.5 56
q-7 11 -29.5 22.5t-22.5 26.5t17 29z" />
    <glyph glyph-name="Ncaron" unicode="&#x147;" horiz-adv-x="677" 
d="M564 943q30 0 30 -26q0 -14 -11.5 -25.5t-40.5 -29.5t-41 -27t-32 -26.5t-32 -26t-22 -8.5q-20 0 -85 64.5t-65 101.5q0 16 9 26.5t23 10.5t28 -17t39 -49.5t57 -57.5q50 46 88.5 68t54.5 22zM562 680q2 43 20.5 43t40.5 -23t22 -41q0 -82 -25.5 -233t-68 -280
t-80.5 -129q-13 0 -29.5 13t-25.5 32q-30 70 -177 444q-30 -116 -66.5 -262.5t-48.5 -186.5t-21 -40q-13 0 -31.5 22.5t-18.5 46.5t65 281.5t67 321.5q0 32 17 32q11 0 30.5 -18.5t28.5 -40.5q161 -418 204 -512q65 172 87 411q10 110 10 119z" />
    <glyph glyph-name="ncaron" unicode="&#x148;" horiz-adv-x="532" 
d="M284.5 431q61.5 80 100 80t73 -41t34.5 -87q0 -67 -33 -176q-62 -192 -108 -192q-23 0 -23 30q0 24 22 87q59 167 59 230q0 21 -9.5 36t-18 15t-16.5 -3.5t-17 -12t-17.5 -18t-19.5 -24.5t-20 -28t-22.5 -34t-23 -36.5t-25 -40t-26 -40.5t-27.5 -44t-28.5 -45t-24.5 -35
q-26 -37 -39.5 -37t-33 22.5t-19.5 39.5q0 4 18.5 62t26.5 88q26 97 30 215q3 73 21 73q22 0 43.5 -23t21.5 -50.5t-16.5 -106t-38.5 -146.5q95 162 156.5 242zM302 553q-20 0 -85 64.5t-65 101.5q0 16 8.5 26.5t23 10.5t28.5 -17t39 -49.5t57 -57.5q50 46 88.5 68t54.5 22
q29 0 29 -26q0 -14 -11 -25t-40 -29.5t-41 -27.5t-32 -26q-41 -35 -54 -35z" />
    <glyph glyph-name="Omacron" unicode="&#x14c;" horiz-adv-x="613" 
d="M610.5 871.5q37.5 -4.5 37.5 -19t-30 -21t-144 -19.5t-117 -13q-19 0 -36.5 17.5t-17.5 31.5q0 28 175 28q95 0 132.5 -4.5zM453 300.5q47 86.5 47 163.5t-29.5 125t-69.5 48t-100 -62t-108 -162.5t-48 -192.5q0 -55 24 -89.5t56 -34.5q50 0 115.5 59t112.5 145.5z
M219 17q-66 0 -115.5 65t-49.5 132q0 91 33.5 185t84 164t111.5 114.5t113 44.5q84 0 140 -76.5t56 -172.5t-53 -201.5t-141.5 -180t-178.5 -74.5z" />
    <glyph glyph-name="omacron" unicode="&#x14d;" horiz-adv-x="452" 
d="M333 341q0 34 -11 64.5t-32 44.5q-69 -19 -118.5 -106.5t-49.5 -164.5t38 -96q72 14 122.5 98.5t50.5 159.5zM161.5 460.5q56.5 50.5 116 50.5t99.5 -50.5t40 -123t-35 -148t-96.5 -125t-130.5 -49.5q-51 0 -85 47t-34 119.5t34.5 150.5t91 128.5zM443.5 650.5
q37.5 -4.5 37.5 -19t-30 -21t-144.5 -19.5t-117.5 -13q-19 0 -36.5 17t-17.5 32q0 28 176 28q95 0 132.5 -4.5z" />
    <glyph glyph-name="Ohungarumlaut" unicode="&#x150;" horiz-adv-x="613" 
d="M669.5 972q13.5 -16 13.5 -31.5t-5 -26t-10 -16.5t-19.5 -22t-20.5 -23.5t-14 -17t-12 -14.5t-10.5 -12t-10.5 -11t-9 -8q-10 -7 -20.5 -7t-16.5 8.5t-6 23t21 51.5t29 51.5t12.5 22t10 17t9 14.5t8.5 9q8 8 22.5 8t28 -16zM451 977q11 19 29.5 19t32.5 -16.5t14 -30
t-2 -19.5t-4 -11t-7 -13t-8.5 -13t-11.5 -16t-31.5 -45t-33.5 -42t-20 -8t-16 9t-6 18.5t2.5 19t5.5 17.5t10.5 25.5t21 52t24.5 53.5zM453 300.5q47 86.5 47 163.5t-29.5 125t-69.5 48t-100 -62t-108 -162.5t-48 -192.5q0 -55 24 -89.5t56 -34.5q50 0 115.5 59t112.5 145.5
zM219 17q-66 0 -115.5 65t-49.5 132q0 91 33.5 185t84 164t111.5 114.5t113 44.5q84 0 140 -76.5t56 -172.5t-53 -201.5t-141.5 -180t-178.5 -74.5z" />
    <glyph glyph-name="ohungarumlaut" unicode="&#x151;" horiz-adv-x="452" 
d="M333 341q0 34 -11 64.5t-32 44.5q-69 -19 -118.5 -106.5t-49.5 -164.5t38 -96q72 14 122.5 98.5t50.5 159.5zM161.5 460.5q56.5 50.5 116 50.5t99.5 -50.5t40 -123t-35 -148t-96.5 -125t-130.5 -49.5q-51 0 -85 47t-34 119.5t34.5 150.5t91 128.5zM501.5 751
q13.5 -16 13.5 -31.5t-5 -26t-10 -16.5t-19.5 -22t-20.5 -23.5t-14 -17t-12 -14.5t-10.5 -12t-10.5 -11t-9 -8q-10 -7 -21 -7q-21 0 -21 24q0 23 46 106q7 11 10.5 17.5t8.5 15t8 13.5t7 10.5t7 8.5t7 5q6 5 19 5t26.5 -16zM283 755q12 20 30.5 20t32.5 -16.5t14 -30.5
t-2 -20.5t-7 -15t-9 -14.5t-13.5 -19t-14.5 -20q-42 -63 -53 -70.5t-20.5 -7.5t-15.5 9t-6 19.5t3 20.5t13 32.5t23 57.5t25 55z" />
    <glyph glyph-name="OE" unicode="&#x152;" horiz-adv-x="940" 
d="M538 650q0 19 8 27q24 33 219.5 33t195.5 -29q0 -19 -43 -27q-35 -7 -94.5 -12.5t-83.5 -8t-116 -18.5v-3q0 -68 -37 -205q6 -1 40.5 -1t92 5t87.5 5t30 -14q0 -35 -82 -52t-190 -17q-29 -94 -33 -108.5t-10 -36.5q-12 -40 -12 -57q0 -32 28 -32q115 0 254 37
q45 12 52 12q14 0 14 -21q0 -36 -110 -74t-214 -38q-46 0 -80.5 27t-34.5 63v5q-100 -93 -200 -93q-66 0 -115.5 65t-49.5 132q0 91 33.5 185t84 164t111.5 114.5t113 44.5q83 0 142 -79v7zM500 458q0 83 -29.5 131t-69.5 48t-100 -62t-108 -162.5t-48 -192.5
q0 -55 24 -89.5t56 -34.5q62 0 145 90q89 97 122 212q8 32 8 60z" />
    <glyph glyph-name="oe" unicode="&#x153;" horiz-adv-x="906" 
d="M602 305.5q38 16.5 38 43.5t-24.5 55t-48.5 28q-37 0 -76.5 -38.5t-67.5 -95.5q35 -9 88 -9t91 16.5zM333 341q0 34 -11 64.5t-32 44.5q-69 -19 -118.5 -106.5t-49.5 -164.5t38 -96q71 15 122 96t51 162zM561 511q60 0 108.5 -56t48.5 -109.5t-57.5 -87t-127.5 -33.5
t-132 15q-16 -38 -16 -75q0 -75 84 -75q58 0 110.5 17.5t57.5 17.5q26 0 26 -20q0 -27 -61 -58.5t-117 -31.5t-97.5 24t-61.5 65q-77 -89 -171 -89q-51 0 -85 47t-34 119.5t34.5 150.5t91 128.5t114.5 50.5q43 0 75.5 -27.5t49.5 -70.5q79 98 160 98z" />
    <glyph glyph-name="Racute" unicode="&#x154;" horiz-adv-x="575" 
d="M552 954.5q13 -18.5 13 -33t-2.5 -21.5t-12 -15t-16.5 -13q-35 -23 -53.5 -35t-32.5 -22.5t-19.5 -14t-13.5 -8.5q-13 -8 -23 -8t-18 8t-8 21.5t12.5 29.5t37 40t39 38t22.5 22t17 15q17 15 31 15t27 -18.5zM95 16q-15 0 -33.5 22t-18.5 44t55 216.5t62 295.5
q-13 8 -23 25t-10 30q0 23 68 47.5t151 24.5t143.5 -39.5t60.5 -111.5q0 -49 -27.5 -91.5t-67 -69.5t-79 -48t-67 -34.5t-27.5 -19.5q0 -22 34.5 -57t48.5 -48t37 -34t44 -39t33 -28.5t25 -22.5q25 -23 25 -37q0 -24 -33 -24q-60 0 -171 104.5t-136 177.5
q-14 -45 -30 -100.5t-23 -79t-16 -51.5q-17 -52 -25 -52zM458 570q0 62 -108 62q-49 0 -114 -25q10 -22 10 -40q0 -65 -42 -215q17 13 65 38.5t86.5 47t70.5 57.5t32 75z" />
    <glyph glyph-name="racute" unicode="&#x155;" horiz-adv-x="318" 
d="M393 733.5q13 -18.5 13 -33t-2.5 -21.5t-12 -15t-17.5 -13q-34 -23 -53 -35.5t-32 -22.5t-19 -14q-25 -17 -36 -17t-18.5 8.5t-7.5 22t12.5 29.5t36.5 39.5t39 38t22.5 22.5t17.5 16q18 14 31 14t26 -18.5zM91 389l-3 75q0 47 22 47q19 0 36.5 -24.5t17.5 -58t-2 -50.5
q87 132 165 132q49 0 49 -24q0 -12 -11 -22t-35 -23q-53 -23 -89.5 -70.5t-59.5 -107.5t-36.5 -101t-20.5 -64t-16 -45q-16 -40 -37 -40q-17 0 -27.5 19.5t-10.5 38t17 73.5q41 126 41 245z" />
    <glyph glyph-name="uni0156" unicode="&#x156;" horiz-adv-x="575" 
d="M95 16q-15 0 -33.5 22t-18.5 44t55 216.5t62 295.5q-13 8 -23 25t-10 30q0 23 68 47.5t151 24.5t143.5 -39.5t60.5 -111.5q0 -49 -27.5 -91.5t-67 -69.5t-79 -48t-67 -34.5t-27.5 -19.5q0 -22 34.5 -57t48.5 -48t37 -34t44 -39t33 -28.5t25 -22.5q25 -23 25 -37
q0 -24 -33 -24q-60 0 -171 104.5t-136 177.5q-14 -45 -30 -100.5t-23 -79t-16 -51.5q-17 -52 -25 -52zM246 567q0 -65 -42 -215q17 13 65 38.5t86.5 47t70.5 57.5t32 75q0 62 -108 62q-49 0 -114 -25q10 -22 10 -40zM210.5 -45q16.5 14 40 14t47 -21.5t23.5 -50.5
q0 -51 -50.5 -95t-89.5 -44q-22 0 -22 18q0 13 40.5 45.5t46.5 56.5q-7 10 -29.5 21.5t-22.5 26.5t16.5 29z" />
    <glyph glyph-name="uni0157" unicode="&#x157;" horiz-adv-x="326" 
d="M100 389l-3 75q0 47 22 47q19 0 36.5 -24.5t17.5 -58t-2 -50.5q87 132 165 132q49 0 49 -24q0 -12 -11 -22t-35 -23q-53 -23 -89.5 -70.5t-59.5 -107.5t-36.5 -101t-20.5 -64t-16 -45q-16 -40 -37 -40q-17 0 -27.5 19.5t-10.5 38t18 73.5q40 126 40 245zM15 -38
q17 14 40 14t46.5 -21.5t23.5 -51.5q0 -51 -50.5 -94.5t-89.5 -43.5q-23 0 -23 17q0 14 41 46t47 56q-8 11 -30 22.5t-22 26.5t17 29z" />
    <glyph glyph-name="Rcaron" unicode="&#x158;" horiz-adv-x="575" 
d="M95 16q-15 0 -33.5 22t-18.5 44t55 216.5t62 295.5q-13 8 -23 25t-10 30q0 23 68 47.5t151 24.5t143.5 -39.5t60.5 -111.5q0 -49 -27.5 -91.5t-67 -69.5t-79 -48t-67 -34.5t-27.5 -19.5q0 -22 34.5 -57t48.5 -48t37 -34t44 -39t33 -28.5t25 -22.5q25 -23 25 -37
q0 -24 -33 -24q-60 0 -171 104.5t-136 177.5q-14 -45 -30 -100.5t-23 -79t-16 -51.5q-17 -52 -25 -52zM458 570q0 62 -108 62q-49 0 -114 -25q10 -22 10 -40q0 -65 -42 -215q17 13 65 38.5t86.5 47t70.5 57.5t32 75zM381 774q-20 0 -85 64.5t-65 101.5q0 16 8.5 26.5
t23 10.5t28.5 -17t39 -49.5t57 -57.5q50 46 88.5 68t54.5 22q29 0 29 -26q0 -14 -11 -25t-40 -29.5t-41 -27.5t-33 -27q-40 -34 -53 -34z" />
    <glyph glyph-name="rcaron" unicode="&#x159;" horiz-adv-x="318" 
d="M372 722q29 0 29 -26q0 -14 -11.5 -25.5t-40.5 -29.5t-41 -27t-32 -26.5t-32 -26t-22 -8.5q-20 0 -85 64.5t-65 101.5q0 16 9 26.5t23 10.5t28.5 -17t39.5 -49.5t57 -57.5q50 46 88.5 68t54.5 22zM91 389l-3 75q0 47 22 47q19 0 36.5 -24.5t17.5 -58t-2 -50.5
q87 132 165 132q49 0 49 -24q0 -12 -11 -22t-35 -23q-53 -23 -89.5 -70.5t-59.5 -107.5t-36.5 -101t-20.5 -64t-16 -45q-16 -40 -37 -40q-17 0 -27.5 19.5t-10.5 38t17 73.5q41 126 41 245z" />
    <glyph glyph-name="Sacute" unicode="&#x15a;" horiz-adv-x="526" 
d="M389 792q-8 8 -8 21.5t12.5 29t49.5 53.5q24 22 40.5 38.5t25.5 23.5q17 15 30.5 15t27 -19t13.5 -32.5t-2.5 -20t-6.5 -11t-13.5 -12t-17.5 -12.5t-25 -15.5t-28.5 -18.5t-24.5 -18t-19 -14t-13 -8q-13 -8 -23 -8t-18 8zM468 214q0 -82 -74 -137.5t-169.5 -55.5
t-157.5 49.5t-62 93.5q0 30 18 30q16 0 63 -48q18 -17 48.5 -32t64.5 -15q70 0 124.5 36t54.5 78q0 27 -36 69t-79.5 79.5t-79.5 80.5t-36 68t10 53t22 41q39 43 121.5 79t138.5 36q29 0 49 -19t20 -40q0 -10 -21 -16t-63.5 -15.5t-75.5 -22.5q-115 -44 -115 -85
q0 -22 117 -123q45 -39 81.5 -90.5t36.5 -93.5z" />
    <glyph glyph-name="sacute" unicode="&#x15b;" horiz-adv-x="426" 
d="M317 511q34 0 64 -37.5t30 -65.5q0 -17 -16 -17q-11 0 -34 17.5t-47 17.5t-75.5 -28t-51.5 -59q0 -23 92 -79q35 -22 63.5 -56.5t28.5 -74t-54.5 -77t-127 -37.5t-128 35t-55.5 66q0 13 6.5 20.5t16.5 7.5t28 -13q54 -39 112.5 -39t84.5 13.5t26 36t-29 48t-63.5 45.5
t-63.5 49t-29 59q0 53 83.5 110.5t138.5 57.5zM255.5 570.5q-7.5 8.5 -7.5 22t12.5 29.5t37 40t39 38t22.5 22t17 16q17 14 30.5 14t27 -19t13.5 -32.5t-2.5 -20t-6.5 -11t-13.5 -12t-17.5 -12.5t-25 -15.5t-28.5 -18.5t-24.5 -18t-19 -14q-26 -17 -36.5 -17t-18 8.5z" />
    <glyph glyph-name="Scedilla" unicode="&#x15e;" horiz-adv-x="539" 
d="M219 -36q31 0 62 -17.5t31 -43.5t-32 -49q-61 -45 -155 -45q-19 0 -31.5 7.5t-12.5 18.5t26.5 17t64.5 15t56 28q-7 9 -47.5 17.5t-40.5 19.5q0 14 16.5 48t21.5 46q-68 14 -114 57.5t-46 77t18 33.5q16 0 64 -48q17 -17 47.5 -32t64.5 -15q70 0 124.5 36t54.5 78
q0 27 -36 69t-79.5 79.5t-79.5 80.5t-36 68t10 53t22 41q39 43 121.5 79t138.5 36q29 0 49 -19t20 -40q0 -10 -21 -16t-63.5 -15.5t-75.5 -22.5q-115 -44 -115 -85q0 -22 118 -123q44 -39 80.5 -90.5t36.5 -93.5q0 -79 -68.5 -133.5t-169.5 -59.5q-8 -23 -27 -57h3z" />
    <glyph glyph-name="scedilla" unicode="&#x15f;" horiz-adv-x="426" 
d="M148 -53q31 0 62 -17.5t31 -43.5t-31 -49q-62 -45 -156 -45q-20 0 -32 7.5t-12 18.5t26.5 17t64.5 15t56 28q-7 9 -47.5 17.5t-40.5 18.5t8 28.5t20 43.5t17 40q-45 14 -76.5 41.5t-31.5 44.5t6.5 24.5t16.5 7.5t28 -13q54 -39 112.5 -39t84.5 13.5t26 36t-29 48
t-63.5 45.5t-63.5 49t-29 59q0 53 83.5 110.5t138.5 57.5q34 0 64 -37.5t30 -65.5q0 -17 -16 -17q-11 0 -34 17.5t-47 17.5t-75.5 -28t-51.5 -59q0 -23 92 -79q35 -22 63.5 -56.5t28.5 -74t-54.5 -77t-130.5 -37.5h-11q-7 -28 -30 -68h3z" />
    <glyph glyph-name="Scaron" unicode="&#x160;" horiz-adv-x="526" 
d="M545 943q29 0 29 -26q0 -14 -11 -25t-40 -29.5t-41 -27.5t-32 -27q-41 -34 -54 -34q-21 0 -85.5 64.5t-64.5 101.5q0 16 8.5 26.5t23 10.5t28.5 -17t39 -49.5t57 -57.5q50 46 88.5 68t54.5 22zM468 214q0 -82 -74 -137.5t-169.5 -55.5t-157.5 49.5t-62 93.5q0 30 18 30
q16 0 63 -48q18 -17 48.5 -32t64.5 -15q70 0 124.5 36t54.5 78q0 27 -36 69t-79.5 79.5t-79.5 80.5t-36 68t10 53t22 41q39 43 121.5 79t138.5 36q29 0 49 -19t20 -40q0 -10 -21 -16t-63.5 -15.5t-75.5 -22.5q-115 -44 -115 -85q0 -22 117 -123q45 -39 81.5 -90.5
t36.5 -93.5z" />
    <glyph glyph-name="scaron" unicode="&#x161;" horiz-adv-x="426" 
d="M317 511q34 0 64 -37.5t30 -65.5q0 -17 -16 -17q-11 0 -34 17.5t-47 17.5t-75.5 -28t-51.5 -59q0 -23 92 -79q35 -22 63.5 -56.5t28.5 -74t-54.5 -77t-127 -37.5t-128 35t-55.5 66q0 13 6.5 20.5t16.5 7.5t28 -13q54 -39 112.5 -39t84.5 13.5t26 36t-29 48t-63.5 45.5
t-63.5 49t-29 59q0 53 83.5 110.5t138.5 57.5zM412 722q29 0 29 -26q0 -14 -11.5 -25.5t-40.5 -29.5t-41 -27t-32 -26.5t-32 -26t-22 -8.5q-20 0 -85 64.5t-65 101.5q0 16 9 26.5t23.5 10.5t28.5 -17t39 -49.5t57 -57.5q50 46 88.5 68t54.5 22z" />
    <glyph glyph-name="uni0162" unicode="&#x162;" horiz-adv-x="521" 
d="M284 632l-171 -8q-16 0 -33 21t-17 41q0 18 57.5 23t252.5 5q101 0 166.5 -22t65.5 -49q0 -19 -33 -19t-92 4t-113 5q3 -10 3 -22q0 -37 -78 -344q-7 -27 -17.5 -73.5t-16.5 -71.5q-27 -104 -59 -158h4q30 0 61.5 -17.5t31.5 -43.5t-32 -49q-61 -45 -155 -45
q-20 0 -32.5 7.5t-12.5 18.5t27 17t65 15t56 28q-7 9 -48 17.5t-41 20t20.5 54t23.5 52.5t8 18q-8 14 -8 33.5t54 233t63 308.5z" />
    <glyph glyph-name="uni0163" unicode="&#x163;" horiz-adv-x="364" 
d="M102 -53q31 0 62.5 -17.5t31.5 -43.5t-32 -49q-63 -45 -156 -45q-19 0 -31.5 7.5t-12.5 18.5t26.5 17t64.5 15t56 28q-7 9 -47.5 17.5t-40.5 18.5t8 29t20.5 44.5t17 39t15.5 18.5q-28 26 -28 52.5t12 70t34.5 115t35.5 118.5q-47 -11 -63 -11t-31.5 16.5t-15.5 31.5
q0 24 130 46q18 83 18 147q0 30 20 30q17 0 42 -21.5t25 -48.5t-17 -95q57 5 91 5q60 0 60 -26q0 -15 -32.5 -25t-136.5 -31q-21 -79 -53 -180.5t-32 -123.5q0 -19 22 -19q38 0 92.5 21.5t60.5 21.5q18 0 18 -19q0 -29 -59.5 -67t-117.5 -38q-9 0 -29 4q-5 -26 -31 -72h3z
" />
    <glyph glyph-name="Tcaron" unicode="&#x164;" horiz-adv-x="521" 
d="M271 632l-171 -8q-16 0 -33 21t-17 41q0 18 57.5 23t252.5 5q101 0 166.5 -22t65.5 -49q0 -19 -33 -19t-92 4t-113 5q3 -10 3 -22q0 -37 -78 -344q-8 -32 -24 -100t-23 -95q-15 -53 -26 -53q-15 0 -33.5 22.5t-18.5 45.5t54 236.5t63 308.5zM333 733q-20 0 -85 64.5
t-65 101.5q0 16 9 26.5t23.5 10.5t28.5 -17t39 -49.5t57 -57.5q50 46 88.5 68t54.5 22q29 0 29 -26q0 -14 -11.5 -25.5t-40.5 -29.5t-41 -27t-32 -26.5t-32 -26t-22 -8.5z" />
    <glyph glyph-name="tcaron" unicode="&#x165;" horiz-adv-x="432" 
d="M356 737.5q17 13.5 40 13.5t46.5 -21t23.5 -51q0 -52 -50 -95.5t-90 -43.5q-22 0 -22 18q0 13 40.5 45.5t46.5 56.5q-7 11 -29.5 22.5t-22.5 26.5t17 28.5zM333 501q60 0 60 -26q0 -15 -32.5 -25t-137.5 -31q-19 -76 -51.5 -181t-32.5 -123.5t22 -18.5q38 0 92.5 21.5
t60.5 21.5q18 0 18 -19q0 -29 -59.5 -67t-107.5 -38t-80 26.5t-32 54.5t11.5 71.5t34.5 115.5t35 118q-47 -11 -63 -11t-31.5 16.5t-15.5 31.5q0 24 130 46q18 83 18 147q0 30 21 30q16 0 41 -21.5t25 -48.5t-17 -95q57 5 91 5z" />
    <glyph glyph-name="Umacron" unicode="&#x16a;" horiz-adv-x="592" 
d="M490.5 871.5q37.5 -4.5 37.5 -19t-30 -21t-144 -19.5t-117 -13q-19 0 -36.5 17.5t-17.5 31.5q0 28 175 28q95 0 132.5 -4.5zM168 712.5q4 6.5 18.5 6.5t39 -26.5t24.5 -62t-41 -193.5t-41 -214.5t21 -91.5t54 -35t73 38t74.5 99.5t58 150t23.5 178.5q0 42 -4.5 84
t-4.5 52q0 21 18 21q23 0 53 -34.5t30 -88.5q0 -154 -45 -289t-121 -215.5t-162 -80.5q-63 0 -109.5 61t-46.5 140t42 248.5t42 228.5q0 17 4 23.5z" />
    <glyph glyph-name="umacron" unicode="&#x16b;" horiz-adv-x="479" 
d="M310 655q95 0 132.5 -4.5t37.5 -19t-30 -21t-144.5 -19.5t-117.5 -13q-19 0 -36.5 17t-17.5 32q0 28 176 28zM392 505q4 6 17.5 6t33 -26t19.5 -50q0 -13 -44 -154t-68 -224q-12 -42 -34 -42q-13 0 -22 11t-9 40t23 105q-42 -68 -91 -112t-89.5 -44t-76.5 38t-36 78
q0 95 55.5 237.5t92.5 142.5q17 0 30.5 -16.5t13.5 -31.5t-27 -71q-80 -168 -80 -260q0 -16 10 -26.5t24 -10.5q38 0 90.5 67t95.5 156t64 165q4 16 8 22z" />
    <glyph glyph-name="Uring" unicode="&#x16e;" horiz-adv-x="592" 
d="M399.5 839q10.5 14 10.5 32.5t-7.5 29t-20 10.5t-23 -14.5t-10.5 -32.5t7.5 -28.5t20 -10.5t23 14zM314 797q-23 25 -23 64t29.5 72.5t66.5 33.5t59.5 -25.5t22.5 -64t-29.5 -72t-66 -33.5t-59.5 25zM168 712.5q4 6.5 18.5 6.5t39 -26.5t24.5 -62t-41 -193.5t-41 -214.5
t21 -91.5t54 -35t73 38t74.5 99.5t58 150t23.5 178.5q0 42 -4.5 84t-4.5 52q0 21 18 21q23 0 53 -34.5t30 -88.5q0 -154 -45 -289t-121 -215.5t-162 -80.5q-63 0 -109.5 61t-46.5 140t42 248.5t42 228.5q0 17 4 23.5z" />
    <glyph glyph-name="uring" unicode="&#x16f;" horiz-adv-x="479" 
d="M392 505q4 6 17.5 6t33 -26t19.5 -50q0 -13 -44 -154t-68 -224q-12 -42 -34 -42q-13 0 -22 11t-9 40t23 105q-42 -68 -91 -112t-89.5 -44t-76.5 38t-36 78q0 95 55.5 237.5t92.5 142.5q17 0 30.5 -16.5t13.5 -31.5t-27 -71q-80 -168 -80 -260q0 -16 10 -26.5t24 -10.5
q38 0 90.5 67t95.5 156t64 165q4 16 8 22zM390.5 584.5q-29.5 -33.5 -66 -33.5t-59.5 25t-23 64t29.5 72.5t66.5 33.5t59.5 -25.5t22.5 -64t-29.5 -72zM353.5 679.5q-7.5 10.5 -20 10.5t-22.5 -14t-10 -32.5t7.5 -29t19.5 -10.5t22.5 14t10.5 32.5t-7.5 29z" />
    <glyph glyph-name="Uhungarumlaut" unicode="&#x170;" horiz-adv-x="592" 
d="M549.5 972q13.5 -16 13.5 -31.5t-5 -26t-10 -16.5t-19.5 -22t-20.5 -23.5t-14 -17t-12 -14.5t-10.5 -12t-10.5 -11t-9 -8q-10 -7 -20.5 -7t-16.5 8.5t-6 23t20.5 50.5t27 47.5t10 18t8.5 15t8 13.5t7 10.5t7 8.5t7 6q6 4 19 4t26.5 -16zM331 977q11 19 29.5 19t33 -16.5
t14.5 -30.5t-2 -20.5t-7 -15t-9 -14.5t-13.5 -19t-33.5 -47.5t-34 -42.5t-20 -8t-16 9t-6 18.5t2.5 19t5.5 17.5t10.5 25.5t21 52t24.5 53.5zM168 712.5q4 6.5 18.5 6.5t39 -26.5t24.5 -62t-41 -193.5t-41 -214.5t21 -91.5t54 -35t73 38t74.5 99.5t58 150t23.5 178.5
q0 42 -4.5 84t-4.5 52q0 21 18 21q23 0 53 -34.5t30 -88.5q0 -154 -45 -289t-121 -215.5t-162 -80.5q-63 0 -109.5 61t-46.5 140t42 248.5t42 228.5q0 17 4 23.5z" />
    <glyph glyph-name="uhungarumlaut" unicode="&#x171;" horiz-adv-x="479" 
d="M392 505q4 6 17.5 6t33 -26t19.5 -50q0 -13 -44 -154t-68 -224q-12 -42 -34 -42q-13 0 -22 11t-9 40t23 105q-42 -68 -91 -112t-89.5 -44t-76.5 38t-36 78q0 95 55.5 237.5t92.5 142.5q17 0 30.5 -16.5t13.5 -31.5t-27 -71q-80 -168 -80 -260q0 -16 10 -26.5t24 -10.5
q38 0 90.5 67t95.5 156t64 165q4 16 8 22zM327.5 659q-9.5 -13 -33 -48t-34.5 -42.5t-20.5 -7.5t-15.5 9t-6 19.5t3 20.5t13 32.5t20 49.5t18 44q17 39 38 39t35 -16.5t14 -30.5t-2 -20.5t-7 -15t-9 -14.5t-13.5 -19zM382 562q-21 0 -21 24q0 23 47 106q6 11 9.5 17.5
t8.5 15t8 13.5t7 10.5t7 8.5t6 5q7 5 20 5t26.5 -16t13.5 -31.5t-5 -26t-10 -16.5t-19.5 -22t-20.5 -23.5t-14 -17t-12 -14.5t-10.5 -12t-10.5 -11t-10 -8q-9 -7 -20 -7z" />
    <glyph glyph-name="Uogonek" unicode="&#x172;" horiz-adv-x="579" 
d="M196 -79q0 -19 39 -19q12 0 28 5.5t25 5.5t18 -8.5t9 -19.5q0 -24 -38.5 -37t-74 -13t-61.5 19.5t-26 45.5q0 53 69 124q-45 22 -74.5 74t-29.5 108q0 85 42 254.5t42 228.5q0 17 4 23.5t18.5 6.5t39 -26.5t24.5 -62t-41 -193.5t-41 -214.5t21 -91.5t54 -35t73 38
t74.5 99.5t58 150t23.5 178.5q0 42 -4.5 84t-4.5 52q0 21 18 21q23 0 53 -34.5t30 -88.5q0 -141 -38.5 -267.5t-103.5 -209t-142 -102.5q-9 -11 -32 -29q-52 -42 -52 -67z" />
    <glyph glyph-name="uogonek" unicode="&#x173;" horiz-adv-x="479" 
d="M309 -100q16 6 25.5 6t18.5 -9t9 -20q0 -24 -38.5 -36.5t-74 -12.5t-61.5 19t-26 51.5t42 87.5t81 73q0 38 23 112q-42 -68 -91 -112t-89.5 -44t-76.5 38t-36 78q0 95 55.5 237.5t92.5 142.5q17 0 30.5 -16.5t13.5 -31.5t-27 -71q-80 -168 -80 -260q0 -16 10 -26.5
t24 -10.5q38 0 90.5 67t95.5 156t64 165q4 16 8 22t17.5 6t33 -26t19.5 -50q0 -13 -44 -154t-59 -192t-22 -61q-6 -19 -50 -56t-44 -59q0 -19 39 -19q11 0 27 6z" />
    <glyph glyph-name="Ydieresis" unicode="&#x178;" horiz-adv-x="575" 
d="M440 925q16 0 36.5 -39t20.5 -54t-8.5 -24t-17.5 -9q-22 0 -49 26.5t-27 45.5t14.5 36.5t30.5 17.5zM259 907.5q15 17.5 30.5 17.5t36.5 -39t21 -54t-9 -24t-18 -9q-22 0 -49 26.5t-27 45.5t15 36.5zM327 373q18 0 65.5 85.5t97 171.5t70.5 86t34 -15t13 -36t-38 -84
t-102 -166.5t-128 -224.5t-88 -151t-39 -30q-22 0 -22 36q0 28 28 85q9 17 14 28.5t16 32.5t17 32.5t18.5 36t18.5 35.5q-59 15 -108.5 74.5t-75.5 133t-26 143.5t40 70q16 0 25.5 -31t23.5 -89t37 -106.5t55 -82.5t54 -34z" />
    <glyph glyph-name="Zacute" unicode="&#x179;" horiz-adv-x="620" 
d="M384 792q-8 8 -8 21.5t12.5 29t49.5 53.5q24 22 40.5 38.5t25.5 23.5q17 15 30.5 15t27 -19t13.5 -32.5t-2.5 -20t-6.5 -11t-13.5 -12t-17.5 -12.5t-25 -15.5t-28.5 -18.5t-24.5 -18t-19 -14t-14 -8q-12 -8 -22 -8t-18 8zM534 633q28 -34 28 -66t-41.5 -85.5t-101 -106
t-119.5 -102.5t-101.5 -89t-41.5 -51t7 -19t19 -7q53 0 169.5 16.5t150.5 16.5t34 -24q0 -32 -125 -63.5t-252 -31.5q-38 0 -69.5 34.5t-31.5 68t43.5 84t105 102.5t122.5 103q149 123 149 166q0 19 -45.5 31.5t-97 12.5t-95 -7.5t-53.5 -7.5q-22 0 -43 23t-21 42
q-2 18 66 31q35 6 81 6q106 0 196 -30q39 -13 67 -47z" />
    <glyph glyph-name="zacute" unicode="&#x17a;" horiz-adv-x="432" 
d="M220 511q77 0 124 -20q22 -9 40.5 -36.5t18.5 -45.5q0 -38 -46.5 -87t-101.5 -87t-101.5 -73t-46.5 -47q0 -17 26 -17q57 0 140 8t100 8q38 0 38 -23q0 -32 -100 -54t-193 -22q-43 0 -78.5 32.5t-35.5 59.5t50 72.5t110.5 87t110.5 82.5t50 57q0 19 -101 19
q-26 0 -63 -5.5t-53.5 -5.5t-35 21t-18.5 36q0 19 44.5 29.5t121.5 10.5zM265.5 570.5q-7.5 8.5 -7.5 22t12.5 29.5t37 40t39 38t22.5 22t17 16q17 14 30.5 14t27 -19t13.5 -32.5t-2.5 -20t-6.5 -11t-13.5 -12t-17.5 -12.5t-25 -15.5t-28.5 -18.5t-24.5 -18t-19 -14
q-26 -17 -36.5 -17t-18 8.5z" />
    <glyph glyph-name="Zdotaccent" unicode="&#x17b;" horiz-adv-x="620" 
d="M426 788q-22 0 -50 26.5t-28 46.5t15.5 39t32 19t37 -42.5t20.5 -64.5q0 -7 -9 -15.5t-18 -8.5zM534 633q28 -34 28 -66t-41.5 -85.5t-101 -106t-119.5 -102.5t-101.5 -89t-41.5 -51t7 -19t19 -7q53 0 169.5 16.5t150.5 16.5t34 -24q0 -32 -125 -63.5t-252 -31.5
q-38 0 -69.5 34.5t-31.5 68t43.5 84t105 102.5t122.5 103q149 123 149 166q0 19 -45.5 31.5t-97 12.5t-95 -7.5t-53.5 -7.5q-22 0 -43 23t-21 42q-2 18 66 31q35 6 81 6q106 0 196 -30q39 -13 67 -47z" />
    <glyph glyph-name="zdotaccent" unicode="&#x17c;" horiz-adv-x="432" 
d="M308 567q-22 0 -50 26.5t-28 46.5t15.5 39t32 19t37 -42.5t20.5 -64.5q0 -7 -9 -15.5t-18 -8.5zM220 511q77 0 124 -20q22 -9 40.5 -36.5t18.5 -45.5q0 -38 -46.5 -87t-101.5 -87t-101.5 -73t-46.5 -47q0 -17 26 -17q57 0 140 8t100 8q38 0 38 -23q0 -32 -100 -54
t-193 -22q-43 0 -78.5 32.5t-35.5 59.5t50 72.5t110.5 87t110.5 82.5t50 57q0 19 -101 19q-26 0 -63 -5.5t-53.5 -5.5t-35 21t-18.5 36q0 19 44.5 29.5t121.5 10.5z" />
    <glyph glyph-name="Zcaron" unicode="&#x17d;" horiz-adv-x="620" 
d="M540 943q29 0 29 -26q0 -14 -11.5 -25.5t-40.5 -29.5t-41 -27t-32 -26.5t-32 -26t-22 -8.5q-20 0 -85 64.5t-65 101.5q0 16 9 26.5t23.5 10.5t28.5 -17t39 -49.5t57 -57.5q50 46 88.5 68t54.5 22zM534 633q28 -34 28 -66t-41.5 -85.5t-101 -106t-119.5 -102.5t-101.5 -89
t-41.5 -51t7 -19t19 -7q53 0 169.5 16.5t150.5 16.5t34 -24q0 -32 -125 -63.5t-252 -31.5q-38 0 -69.5 34.5t-31.5 68t43.5 84t105 102.5t122.5 103q149 123 149 166q0 19 -45.5 31.5t-97 12.5t-95 -7.5t-53.5 -7.5q-22 0 -43 23t-21 42q-2 18 66 31q35 6 81 6
q106 0 196 -30q39 -13 67 -47z" />
    <glyph glyph-name="zcaron" unicode="&#x17e;" horiz-adv-x="432" 
d="M98 500.5q44 10.5 120.5 10.5t125.5 -20q22 -9 40.5 -36.5t18.5 -45.5q0 -38 -46.5 -87t-101.5 -87t-101.5 -73t-46.5 -47q0 -17 26 -17q57 0 140 8t99 8q39 0 39 -23q0 -32 -100 -54t-193 -22q-43 0 -79 32.5t-36 59.5t50.5 72.5t110.5 86.5q161 112 161 140
q0 19 -102 19q-25 0 -62 -5.5t-53.5 -5.5t-35 21t-18.5 36q0 19 44 29.5zM422 722q29 0 29 -26q0 -14 -11.5 -25.5t-40.5 -29.5t-41 -27t-32 -26.5t-32 -26t-22 -8.5q-20 0 -85 64.5t-65 101.5q0 16 9 26.5t23 10.5t28.5 -17t39.5 -49.5t57 -57.5q50 46 88.5 68t54.5 22z
" />
    <glyph glyph-name="florin" unicode="&#x192;" horiz-adv-x="439" 
d="M52 -128q-30 0 -60 27t-30 56t16 29q3 0 24.5 -18.5t46.5 -18.5q28 0 52 77t78 322q-52 -13 -65.5 -13t-29.5 18.5t-16 36.5q0 27 131 49q46 206 88 276.5t123 70.5q50 0 81.5 -39.5t31.5 -93t-27 -53.5q-24 0 -38 53q-6 20 -18 36.5t-29 16.5q-31 0 -55 -60t-53 -195
q37 4 76 4q60 0 60 -27q0 -19 -36.5 -32.5t-117.5 -26.5q-53 -243 -82 -332t-63 -126t-88 -37z" />
    <glyph glyph-name="uni0218" unicode="&#x218;" horiz-adv-x="539" 
d="M481 214q0 -82 -74 -137.5t-169.5 -55.5t-157.5 49.5t-62 93.5q0 30 18 30q16 0 64 -48q17 -17 47.5 -32t64.5 -15q70 0 124.5 36t54.5 78q0 27 -36 69t-79.5 79.5t-79.5 80.5t-36 68t10 53t22 41q39 43 121.5 79t138.5 36q29 0 49 -19t20 -40q0 -10 -21 -16t-63.5 -15.5
t-75.5 -22.5q-115 -44 -115 -85q0 -22 118 -123q44 -39 80.5 -90.5t36.5 -93.5zM129 -224q0 13 40.5 45.5t46.5 56.5q-7 10 -29.5 21.5t-22.5 26.5t16.5 29t40 14t47 -21.5t23.5 -50.5q0 -51 -50.5 -95t-89.5 -44q-22 0 -22 18z" />
    <glyph glyph-name="uni0219" unicode="&#x219;" horiz-adv-x="426" 
d="M216 -97q0 -51 -50.5 -94.5t-89.5 -43.5q-23 0 -23 17q0 14 41 46t47 56q-8 11 -30 22.5t-22 26.5t17 29t40 14t46.5 -21.5t23.5 -51.5zM317 511q34 0 64 -37.5t30 -65.5q0 -17 -16 -17q-11 0 -34 17.5t-47 17.5t-75.5 -28t-51.5 -59q0 -23 92 -79q35 -22 63.5 -56.5
t28.5 -74t-54.5 -77t-127 -37.5t-128 35t-55.5 66q0 13 6.5 20.5t16.5 7.5t28 -13q54 -39 112.5 -39t84.5 13.5t26 36t-29 48t-63.5 45.5t-63.5 49t-29 59q0 53 83.5 110.5t138.5 57.5z" />
    <glyph glyph-name="uni021A" unicode="&#x21a;" horiz-adv-x="521" 
d="M282 632l-170 -8q-16 0 -33.5 21t-17.5 41q0 18 57.5 23t252.5 5q101 0 166.5 -22t65.5 -49q0 -19 -33 -19t-92 4t-113 5q3 -10 3 -22q0 -37 -78 -344q-8 -32 -24 -100t-24 -95q-14 -53 -25 -53q-15 0 -33.5 22.5t-18.5 45.5t54 236.5t63 308.5zM114 -45q17 14 40 14
t47 -21.5t24 -50.5q0 -51 -51 -95t-90 -44q-22 0 -22 18q0 13 40.5 45.5t46.5 56.5q-6 10 -29 21.5t-23 26.5t17 29z" />
    <glyph glyph-name="uni021B" unicode="&#x21b;" horiz-adv-x="364" 
d="M223 419q-19 -76 -51.5 -181t-32.5 -123.5t22 -18.5q38 0 92.5 21.5t60.5 21.5q18 0 18 -19q0 -29 -59.5 -67t-107.5 -38t-80 26.5t-32 54.5t11.5 71.5t34.5 115.5t35 118q-47 -11 -63 -11t-31.5 16.5t-15.5 31.5q0 24 130 46q18 83 18 147q0 30 21 30q16 0 41 -21.5
t25 -48.5t-17 -95q57 5 91 5q60 0 60 -26q0 -15 -32.5 -25t-137.5 -31zM78.5 -38q16.5 14 40 14t47 -21.5t23.5 -51.5q0 -51 -50.5 -94.5t-89.5 -43.5q-23 0 -23 17q0 14 40.5 46.5t47.5 55.5q-8 11 -30 22.5t-22 26.5t16.5 29z" />
    <glyph glyph-name="uni02BC" unicode="&#x2bc;" horiz-adv-x="274" 
d="M231 744q0 -63 -58 -127t-95 -64q-27 0 -27 22q0 12 22.5 34t45.5 51t23 54t-9 37t-19 17q-29 12 -29 31t15.5 32.5t36.5 13.5q39 0 66.5 -27.5t27.5 -73.5z" />
    <glyph glyph-name="circumflex" unicode="&#x2c6;" horiz-adv-x="335" 
d="M174.5 737q8.5 3 15.5 3t15.5 -5t13.5 -11l24 -30t30 -35t20.5 -23.5t15.5 -19.5q16 -20 16 -32q0 -24 -26 -24q-16 0 -39 19t-36 35t-39 49q-28 -15 -58.5 -38.5t-50 -37.5t-33.5 -14t-23.5 9t-9.5 27t16 35.5t40.5 31.5t40.5 24t26 16t21.5 12t20 9z" />
    <glyph glyph-name="caron" unicode="&#x2c7;" horiz-adv-x="349" 
d="M310 722q29 0 29 -26q0 -14 -11.5 -25.5t-40.5 -29.5t-41 -27t-32 -26.5t-32 -26t-22 -8.5q-20 0 -85 64.5t-65 101.5q0 16 9 26.5t23 10.5t28.5 -17t39.5 -49.5t57 -57.5q50 46 88.5 68t54.5 22z" />
    <glyph glyph-name="uni02C9" unicode="&#x2c9;" horiz-adv-x="365" 
d="M338 650q17 -4 17 -17t-29.5 -21.5t-87.5 -17t-90 -14.5q-68 -13 -85.5 -12.5t-35 16.5t-17.5 30q0 18 88 29t155.5 11t84.5 -4z" />
    <glyph glyph-name="breve" unicode="&#x2d8;" horiz-adv-x="304" 
d="M111 650q17 -15 43.5 -15t49 15.5t38.5 30.5t29 15q23 0 23 -23q0 -33 -50.5 -69.5t-101 -36.5t-91.5 35.5t-41 73.5q0 25 14.5 40t27 15t20.5 -15t15 -33t24 -33z" />
    <glyph glyph-name="dotaccent" unicode="&#x2d9;" horiz-adv-x="125" 
d="M88 663q-22 0 -50 26.5t-28 46.5t15.5 39t32 19t37 -42.5t20.5 -64.5q0 -7 -9 -15.5t-18 -8.5z" />
    <glyph glyph-name="ring" unicode="&#x2da;" horiz-adv-x="198" 
d="M118 618q10 14 10 32.5t-7.5 29t-19.5 10.5t-22.5 -14.5t-10.5 -32.5t7.5 -28.5t20 -10.5t22.5 14zM33 576q-23 25 -23 64t29.5 72.5t66.5 33.5t59.5 -25.5t22.5 -64t-29.5 -72t-66 -33.5t-59.5 25z" />
    <glyph glyph-name="ogonek" unicode="&#x2db;" horiz-adv-x="220" 
d="M153 51q12 0 22.5 -7.5t10.5 -19.5q0 -23 -47.5 -62.5t-47.5 -61.5q0 -19 39 -19q11 0 27 6t25 6t18.5 -9t9.5 -20q0 -24 -38.5 -36.5t-74 -12.5t-61.5 19t-26 45q0 46 54 109t89 63z" />
    <glyph glyph-name="tilde" unicode="&#x2dc;" horiz-adv-x="355" 
d="M43 566q-33 0 -33 33.5t39 74t79 40.5q24 0 42.5 -12t27.5 -26q25 -41 43 -44q17 3 38.5 36.5t40.5 33.5q25 0 25 -34.5t-32 -71.5t-69 -37q-54 0 -112 88q-19 -9 -34.5 -30t-27.5 -36t-27 -15z" />
    <glyph glyph-name="hungarumlaut" unicode="&#x2dd;" horiz-adv-x="316" 
d="M292.5 847q13.5 -16 13.5 -31.5t-5 -26t-10 -16.5t-19.5 -22t-20.5 -23.5t-14 -17t-12 -14.5t-10.5 -12t-10.5 -11t-10 -8q-9 -7 -19.5 -7t-16.5 8.5t-6 23t21 51.5t29 51.5t12.5 22t10 17t9 14.5t8.5 10q8 7 22.5 7t28 -16zM74 852q11 19 29.5 19t32.5 -16.5t14 -30
t-2 -19.5t-4 -11t-7 -13t-8.5 -13t-11.5 -16t-31.5 -45t-33.5 -42t-20 -8t-16 9t-6 18.5t2.5 19t5.5 17.5t10.5 25.5t21 52t24.5 53.5z" />
    <glyph glyph-name="pi" unicode="&#x3c0;" horiz-adv-x="717" 
d="M724 513q0 -20 -32 -28t-110 -10q-2 -11 -16 -50q-29 -85 -29 -198q0 -48 10.5 -83t23 -48.5t23 -27.5t10.5 -26t-12 -19.5t-29 -7.5q-45 0 -77 58.5t-32 153.5q0 151 46 246q-79 -2 -182 -10q6 -21 6 -67t-15 -120.5t-37 -131t-49 -93t-49.5 -36.5t-37.5 12t-15 26
t14.5 33t32.5 45.5t36.5 90t24.5 150.5q3 25 8 86q-88 -7 -105.5 -7t-35 20t-17.5 36q0 28 156.5 41.5t273 13.5t166 -9.5t49.5 -39.5z" />
    <glyph glyph-name="uni0901" unicode="&#x901;" horiz-adv-x="0" 
d="M-128 891l-3 -19q0 -41 41 -69t96 -28t84.5 8.5t43 21.5t21.5 28t10 28q5 30 18 30t29.5 -14t16.5 -26q0 -48 -56 -92.5t-148 -44.5t-160 47t-68 129q0 33 24 33q16 0 33.5 -11t17.5 -21zM-2 958q16 0 37 -36.5t21 -59.5t-17.5 -23t-45.5 29.5t-28 46t10.5 30t22.5 13.5z
" />
    <glyph glyph-name="uni0902" unicode="&#x902;" horiz-adv-x="0" 
d="M-27 840q16 0 37 -37t21 -61t-18 -24t-46 29t-28 47t10.5 32t23.5 14z" />
    <glyph glyph-name="uni0903" unicode="&#x903;" horiz-adv-x="82" 
d="M75 185q16 0 36 -34t20 -57t-20 -23q-17 0 -42.5 27t-25.5 43.5t10.5 30t21.5 13.5zM130 453q16 0 35.5 -34t19.5 -57.5t-20 -23.5q-17 0 -42.5 27.5t-25.5 43.5t10.5 30t22.5 14z" />
    <glyph glyph-name="uni0905" unicode="&#x905;" horiz-adv-x="748" 
d="M583 645h279q54 0 54 -34.5t-54 -34.5h-110q-2 -13 -31 -142t-38 -170q-31 -140 -40 -168t-17 -49q-14 -40 -27 -40t-27.5 12.5t-14.5 23.5q0 29 58 285l5 21q-99 -35 -214 -53q36 -36 36 -86q0 -79 -62 -127.5t-157.5 -48.5t-151.5 47.5t-56 111.5q0 26 11 42t27 16
t23.5 -10.5t7.5 -23.5q0 -112 136 -112q64 0 103 28.5t39 76.5t-44 70q-44 -21 -83 -21q-21 0 -42.5 22.5t-21.5 39.5q0 32 75 32q28 0 65 -7q43 29 69.5 68t26.5 79q0 60 -62 60q-25 0 -54.5 -13t-36.5 -29q-3 -7 -8 -19.5t-12 -21t-19 -8.5t-25 15t-13 29q0 45 54.5 83.5
t115 38.5t94.5 -34.5t34 -99t-56 -132.5q135 32 219 80q16 80 28 134h-83q-54 0 -54 34.5t54 34.5z" />
    <glyph glyph-name="uni0906" unicode="&#x906;" horiz-adv-x="1031" 
d="M583 645h552q54 0 54 -34.5t-54 -34.5h-117q-8 -75 -62 -302q-7 -30 -11.5 -49.5t-11 -46.5t-11 -46t-10.5 -40t-10.5 -35t-9.5 -26q-8 -24 -16 -24q-10 0 -27.5 16.5t-17.5 28.5t8.5 50.5t23 101t22 103.5t17.5 93q20 108 33 176h-183q-2 -13 -31 -142t-38 -170
q-31 -140 -40 -168t-17 -49q-14 -40 -27 -40t-27.5 12.5t-14.5 23.5q0 29 58 285l5 21q-99 -35 -214 -53q36 -36 36 -86q0 -79 -62 -127.5t-157.5 -48.5t-151.5 47.5t-56 111.5q0 26 11 42t27 16t23.5 -10.5t7.5 -23.5q0 -112 136 -112q64 0 103 28.5t39 76.5t-44 70
q-44 -21 -83 -21q-21 0 -42.5 22.5t-21.5 39.5q0 32 75 32q28 0 65 -7q43 29 69.5 68t26.5 79q0 60 -62 60q-25 0 -54.5 -13t-36.5 -29q-3 -7 -8 -19.5t-12 -21t-19 -8.5t-25 15t-13 29q0 45 54.5 83.5t115 38.5t94.5 -34.5t34 -99t-56 -132.5q135 32 219 80q16 80 28 134
h-83q-54 0 -54 34.5t54 34.5z" />
    <glyph glyph-name="uni0907" unicode="&#x907;" horiz-adv-x="513" 
d="M406 458l1 102v16h-276q-54 0 -54 34.5t54 34.5h464q55 0 55 -34.5t-55 -34.5h-120q5 -17 5 -53.5t-10 -86.5q-12 -61 -36 -61q-8 0 -31 13q-69 37 -132 37q-34 0 -34 -18q0 -33 83 -83q34 -20 68.5 -43.5t58.5 -57.5t24 -73q0 -90 -128 -117q8 -19 19 -45.5t19 -45
t16 -38.5q16 -38 16 -52q0 -22 -21 -22q-24 0 -52 56q-46 90 -62 138q-12 -1 -36 -1q-90 0 -152 39t-62 104q0 44 32.5 71t86.5 27t95 -45t74 -122q79 17 79 60q0 30 -38 62t-83 56.5t-83 64t-38 78.5q0 77 108 77q76 0 145 -37zM244 90h6q-24 53 -49.5 81t-59.5 28
q-45 0 -45 -39q0 -33 40.5 -51.5t107.5 -18.5z" />
    <glyph glyph-name="uni0908" unicode="&#x908;" horiz-adv-x="542" 
d="M406 458l1 102v16h-276q-54 0 -54 34.5t54 34.5h234q-59 46 -59 115t48.5 113.5t117.5 44.5t114 -35t45 -71q0 -17 -12 -17q-7 0 -23 13q-49 40 -103 40t-83.5 -24.5t-29.5 -61.5t16 -58.5t44.5 -38t32.5 -20.5h122q55 0 55 -34.5t-55 -34.5h-120q5 -17 5 -53.5
t-10 -86.5q-12 -61 -36 -61q-8 0 -31 13q-69 37 -132 37q-34 0 -34 -18q0 -33 83 -83q34 -20 68.5 -43.5t58.5 -57.5t24 -73q0 -90 -128 -117q8 -19 19 -45.5t19 -45t16 -38.5q16 -38 16 -52q0 -22 -21 -22q-24 0 -52 56q-46 90 -62 138q-12 -1 -36 -1q-90 0 -152 39
t-62 104q0 44 32.5 71t86.5 27t95 -45t74 -122q79 17 79 60q0 30 -38 62t-83 56.5t-83 64t-38 78.5q0 77 108 77q76 0 145 -37zM244 90h6q-24 53 -49.5 81t-59.5 28q-45 0 -45 -39q0 -33 40.5 -51.5t107.5 -18.5z" />
    <glyph glyph-name="uni0909" unicode="&#x909;" horiz-adv-x="593" 
d="M135 645h541q54 0 54 -34.5t-54 -34.5h-129q20 -33 20 -83q0 -93 -90 -168q63 -40 63 -113.5t-68 -125.5t-178.5 -52t-177.5 51.5t-67 137.5q0 43 21 73t49 30t28 -23q0 -12 -11.5 -37t-11.5 -49q0 -53 47.5 -82.5t123 -29.5t121 30t45.5 79.5t-45 73.5q-43 -20 -87 -20
q-21 0 -42 22.5t-21 39.5q0 32 74 32q34 0 62 -7q95 59 95 134q0 29 -13 47t-37 18q-45 0 -58 -40q-12 -31 -20 -39.5t-19 -8.5t-23 16t-12 31q0 32 23 63h-203q-54 0 -54 34.5t54 34.5z" />
    <glyph glyph-name="uni090A" unicode="&#x90a;" horiz-adv-x="856" 
d="M135 645h756q54 0 54 -34.5t-54 -34.5h-344q20 -33 20 -80t-24 -93q67 35 135 35t113 -47.5t45 -115.5q0 -95 -53 -168.5t-107 -73.5q-24 0 -42 15t-18 33q0 7 13 7q57 0 94.5 55t37.5 123q0 46 -26 72.5t-75 26.5q-43 0 -69 -13t-35.5 -18.5t-27.5 -18.5t-21 -15
q33 -35 33 -84q0 -78 -68 -130t-178.5 -52t-177.5 51.5t-67 137.5q0 43 21 73t49 30t28 -23q0 -12 -11.5 -37t-11.5 -49q0 -53 47.5 -82.5t123 -29.5t121 30t45.5 79.5t-45 73.5q-43 -20 -87 -20q-21 0 -42 22.5t-21 39.5q0 32 74 32q34 0 62 -7q95 59 95 134q0 29 -13 47
t-37 18q-45 0 -58 -40q-12 -31 -20 -39.5t-19 -8.5t-23 16t-12 31q0 32 23 63h-203q-54 0 -54 34.5t54 34.5z" />
    <glyph glyph-name="uni090B" unicode="&#x90b;" horiz-adv-x="848" 
d="M94 645h826q55 0 55 -34.5t-55 -34.5h-388q-6 -59 -51 -249q26 -13 50 -13t55 25.5t38 49.5q-1 5 -1 18.5t7 26t22 12.5q24 0 48 -48q11 -24 25.5 -39t34.5 -15t28 9.5t18.5 9.5t23.5 -14.5t13 -32.5t-21 -28q-53 -37 -99 -86.5t-46 -85.5q0 -22 40 -22t72 15l32 15
q15 0 15 -26.5t-19 -38.5q-42 -25 -95 -25t-80 21.5t-27 60.5q0 82 108 177q-35 12 -59 37q-28 -34 -66.5 -58.5t-66 -24.5t-64.5 17q-43 -198 -63 -238q-9 -19 -19.5 -19t-23.5 12.5t-13 26.5t37 197q-42 -29 -128 -80q-179 -111 -195 -111t-24.5 8t-8.5 16.5t3.5 13.5
t10.5 12t15 13t21 15t23.5 16t27.5 17.5t28.5 17.5t31 18.5t33.5 20t46 28.5q80 50 99 60q-73 29 -153 76t-80 69q0 28 25 28q13 0 36 -11q51 -26 70.5 -37t30.5 -17q95 -47 111 -57q5 27 19.5 101.5t21.5 115.5h-355q-54 0 -54 34.5t54 34.5z" />
    <glyph glyph-name="uni090C" unicode="&#x90c;" horiz-adv-x="657" 
d="M326 212q-24 0 -22 24q1 11 4 24q10 41 10 63q0 67 -69 67q-56 0 -86.5 -46t-30.5 -109t24.5 -104.5t57 -46.5t49.5 -5q34 0 34 -29q0 -40 -74 -40t-119 63t-45 158t50.5 164.5t142.5 69.5q106 0 118 -98q52 95 156 95h5q5 55 33 114h-462q-54 0 -54 34.5t54 34.5h680
q55 0 55 -34.5t-55 -34.5h-144q-5 -18 -17.5 -50t-19 -52.5t-8.5 -24.5q64 -27 64 -101q0 -39 -19.5 -71t-47.5 -53t-56 -40q-68 -43 -68 -80q0 -42 65 -42q31 0 59 11.5t42 11.5t22.5 -7.5t8.5 -18.5q0 -26 -39 -43.5t-98 -17.5t-95.5 26.5t-36.5 76.5q0 33 19.5 60.5
t47 46.5t54.5 37q66 44 66 93q0 53 -66 53q-37 0 -64 -18.5t-41 -44.5t-25 -52q-26 -64 -59 -64z" />
    <glyph glyph-name="uni090D" unicode="&#x90d;" horiz-adv-x="587" 
d="M54 645h612q54 0 54 -34.5t-54 -34.5h-127q35 -52 35 -132.5t-54.5 -137t-136.5 -56.5q-29 0 -44 12t-15 27q0 22 32 22q64 0 102.5 40.5t38.5 104t-43 120.5h-190q-3 -56 -53 -238.5t-50 -226t12.5 -55.5t67.5 -12t117 20.5t79 20.5q29 0 29 -26q0 -36 -74 -62.5
t-156 -26.5t-120.5 30.5t-38.5 92.5t48.5 242t51.5 241h-123q-54 0 -54 34.5t54 34.5zM330 884l-3 -19q0 -41 41 -69t96 -28t84.5 8.5t43 21.5t21.5 28t10 28q5 30 18 30t29.5 -14t16.5 -26q0 -48 -56 -92.5t-148 -44.5t-160 47t-68 129q0 33 24 33q16 0 33.5 -11t17.5 -21z
" />
    <glyph glyph-name="uni090F" unicode="&#x90f;" horiz-adv-x="583" 
d="M50 645h612q54 0 54 -34.5t-54 -34.5h-127q35 -52 35 -132.5t-54.5 -137t-136.5 -56.5q-29 0 -44 12t-15 27q0 22 32 22q64 0 102.5 40.5t38.5 104t-43 120.5h-190q-3 -56 -53 -238.5t-50 -226t12.5 -55.5t67.5 -12t117 20.5t79 20.5q29 0 29 -26q0 -36 -74 -62.5
t-156 -26.5t-120.5 30.5t-38.5 92.5t48.5 242t51.5 241h-123q-54 0 -54 34.5t54 34.5z" />
    <glyph glyph-name="uni0910" unicode="&#x910;" horiz-adv-x="580" 
d="M658 645q54 0 54 -34.5t-54 -34.5h-127q35 -52 35 -132.5t-54.5 -137t-136.5 -56.5q-29 0 -44 12t-15 27q0 22 32 22q64 0 102.5 40.5t38.5 104t-43 120.5h-190q-3 -56 -53 -238.5t-50 -226t12.5 -55.5t67.5 -12t117 20.5t79 20.5q29 0 29 -26q0 -36 -74 -62.5
t-156 -26.5t-120.5 30.5t-38.5 92.5t48.5 242t51.5 241h-123q-54 0 -54 34.5t54 34.5h358q-61 57 -126.5 158.5t-65.5 150.5q0 16 15 16q28 0 67 -32t39 -58q0 -70 101 -180q40 -43 47 -55h177z" />
    <glyph glyph-name="uni0911" unicode="&#x911;" horiz-adv-x="1038" 
d="M583 645h558q54 0 54 -34.5t-54 -34.5h-117q-8 -75 -62 -302q-7 -30 -11.5 -49.5t-11 -46.5t-11 -46t-10.5 -40t-10.5 -35t-9.5 -26q-8 -24 -16 -24q-10 0 -27.5 16.5t-17.5 28.5t8.5 50.5t23 101t22 103.5t17.5 93q20 108 33 176h-189q-2 -13 -31 -142t-38 -170
q-31 -140 -40 -168t-17 -49q-14 -40 -27 -40t-27.5 12.5t-14.5 23.5q0 29 58 285l5 21q-99 -35 -214 -53q36 -36 36 -86q0 -79 -62 -127.5t-157.5 -48.5t-151.5 47.5t-56 111.5q0 26 11 42t27 16t23.5 -10.5t7.5 -23.5q0 -112 136 -112q64 0 103 28.5t39 76.5t-44 70
q-44 -21 -83 -21q-21 0 -42.5 22.5t-21.5 39.5q0 32 75 32q28 0 65 -7q43 29 69.5 68t26.5 79q0 60 -62 60q-25 0 -54.5 -13t-36.5 -29q-3 -7 -8 -19.5t-12 -21t-19 -8.5t-25 15t-13 29q0 45 54.5 83.5t115 38.5t94.5 -34.5t34 -99t-56 -132.5q135 32 219 80q16 80 28 134
h-83q-54 0 -54 34.5t54 34.5zM875 884l-3 -19q0 -41 41 -69t96 -28t84.5 8.5t43 21.5t21.5 28t10 28q5 30 18 30t29.5 -14t16.5 -26q0 -48 -56 -92.5t-148 -44.5t-160 47t-68 129q0 33 24 33q16 0 33.5 -11t17.5 -21z" />
    <glyph glyph-name="uni0913" unicode="&#x913;" horiz-adv-x="1035" 
d="M1138 645q54 0 54 -34.5t-54 -34.5h-117q-8 -75 -62 -302q-7 -30 -11.5 -49.5t-11 -46.5t-11 -46t-10.5 -40t-10.5 -35t-8.5 -26q-10 -24 -17 -24q-10 0 -27.5 16.5t-17.5 28.5t8.5 50.5t23 101t22 103.5t17.5 93q20 108 33 176h-186q-2 -13 -31 -142t-38 -170
q-31 -140 -40 -168t-17 -49q-14 -40 -27 -40t-27.5 12.5t-14.5 23.5q0 29 58 285l5 21q-99 -35 -214 -53q36 -36 36 -86q0 -79 -62 -127.5t-157.5 -48.5t-151.5 47.5t-56 111.5q0 26 11 42t27 16t23.5 -10.5t7.5 -23.5q0 -112 136 -112q64 0 103 28.5t39 76.5t-44 70
q-44 -21 -83 -21q-21 0 -42.5 22.5t-21.5 39.5q0 32 75 32q28 0 65 -7q43 29 69.5 68t26.5 79q0 60 -62 60q-25 0 -54.5 -13t-36.5 -29q-3 -7 -8 -19.5t-12 -21t-19 -8.5t-25 15t-13 29q0 45 54.5 83.5t115 38.5t94.5 -34.5t34 -99t-56 -132.5q135 32 219 80q16 80 28 134
h-83q-54 0 -54 34.5t54 34.5h356q-61 57 -126.5 158.5t-65.5 150.5q0 16 15 16q28 0 67 -32t39 -58q0 -70 102 -180q39 -43 46 -55h122z" />
    <glyph glyph-name="uni0914" unicode="&#x914;" horiz-adv-x="1035" 
d="M1138 645q54 0 54 -34.5t-54 -34.5h-117q-8 -75 -62 -302q-7 -30 -11.5 -49.5t-11 -46.5t-11 -46t-10.5 -40t-10.5 -35t-8.5 -26q-10 -24 -17 -24q-10 0 -27.5 16.5t-17.5 28.5t8.5 50.5t23 101t22 103.5t17.5 93q20 108 33 176h-186q-2 -13 -31 -142t-38 -170
q-31 -140 -40 -168t-17 -49q-14 -40 -27 -40t-27.5 12.5t-14.5 23.5q0 29 58 285l5 21q-99 -35 -214 -53q36 -36 36 -86q0 -79 -62 -127.5t-157.5 -48.5t-151.5 47.5t-56 111.5q0 26 11 42t27 16t23.5 -10.5t7.5 -23.5q0 -112 136 -112q64 0 103 28.5t39 76.5t-44 70
q-44 -21 -83 -21q-21 0 -42.5 22.5t-21.5 39.5q0 32 75 32q28 0 65 -7q43 29 69.5 68t26.5 79q0 60 -62 60q-25 0 -54.5 -13t-36.5 -29q-3 -7 -8 -19.5t-12 -21t-19 -8.5t-25 15t-13 29q0 45 54.5 83.5t115 38.5t94.5 -34.5t34 -99t-56 -132.5q135 32 219 80q16 80 28 134
h-83q-54 0 -54 34.5t54 34.5h367q-7 15 -22 55q-36 101 -66.5 143.5t-30.5 65.5q0 28 34 28q39 0 89 -110q14 -25 31 -25q26 0 38.5 34.5t12.5 68.5t-4 61t-4 36q0 29 31 29q47 0 47 -105q0 -78 -29.5 -133t-78.5 -55h-9q20 -58 25 -93h124z" />
    <glyph glyph-name="uni0915" unicode="&#x915;" horiz-adv-x="773" 
d="M96 645h719q54 0 54 -34.5t-54 -34.5h-302q-4 -50 -42 -213q110 79 160 79t80.5 -34t30.5 -80.5t-32.5 -105t-70 -96t-57.5 -37.5q-11 0 -21 7t-10 17t19.5 32.5t42.5 47t42.5 65.5t19.5 80t-32 39q-28 0 -73 -28.5t-121 -86.5q-30 -132 -40 -162.5t-19 -51.5
q-16 -41 -34 -41q-12 0 -21 9.5t-9 22.5t32 156q-138 -96 -212 -96q-33 0 -67 27.5t-34 64t34 99.5t88.5 113.5t103.5 50.5q67 0 123 -88q24 142 38 210h-336q-55 0 -55 34.5t55 34.5zM276 382q-40 0 -98.5 -74t-58.5 -112q0 -27 33 -27q44 0 97.5 31.5t129.5 90.5v3l-30 40
q-10 14 -32 31t-41 17z" />
    <glyph glyph-name="uni0916" unicode="&#x916;" horiz-adv-x="813" 
d="M70 645h860q54 0 54 -34.5t-54 -34.5h-117q-6 -60 -64.5 -314.5t-77.5 -254.5q-11 0 -26.5 16.5t-15.5 28t30 146.5q-129 -96 -288 -96q-127 0 -234 158q-37 4 -63.5 23t-26.5 43q0 47 49 47q42 0 81 -49q83 14 136 57.5t53 108.5t-59 65q-40 0 -73 -32
q-12 -11 -23.5 -11t-31 20t-19.5 35q0 3 2 9h-92q-54 0 -54 34.5t54 34.5zM524 295.5q29 -19.5 68 -19.5t65 13.5t26 28.5q0 28 -32.5 55.5t-73.5 27.5q-82 0 -82 -55q0 -31 29 -50.5zM440 492q0 -81 -62.5 -145t-158.5 -82q30 -42 65 -66.5t87 -24.5q103 0 199 49
q-58 4 -95.5 39.5t-37.5 84t38 82t107 33.5t120 -51q13 68 31 165h-313q20 -37 20 -84z" />
    <glyph glyph-name="uni0917" unicode="&#x917;" horiz-adv-x="637" 
d="M108 645h645q55 0 55 -34.5t-55 -34.5h-117q-6 -60 -64.5 -314.5t-77.5 -254.5q-11 0 -28 16.5t-17 28.5t8.5 50t23 101.5t22 104t17.5 92.5q20 108 33 176h-175q2 -32 2 -95t-9 -127.5t-27.5 -120t-51 -88.5t-75.5 -33q-57 0 -102 60t-45 116t40.5 80.5t95 24.5t93.5 -6
q7 73 7 125.5t1 63.5h-199q-55 0 -55 34.5t55 34.5zM215 179q53 0 76 144q-40 6 -69 6q-81 0 -81 -48q0 -30 23 -66t51 -36z" />
    <glyph glyph-name="uni0918" unicode="&#x918;" horiz-adv-x="606" 
d="M63 645h649q54 0 54 -34.5t-54 -34.5h-115q-5 -39 -31 -156.5t-34.5 -156t-14 -62.5t-13 -58t-13 -54.5t-11.5 -40.5q-13 -41 -22 -41q-10 0 -28.5 15t-18.5 30t31 159q-61 -50 -136.5 -82t-144.5 -32q-40 0 -62 20t-22 49t27 70q40 62 100 106q-49 11 -84.5 36t-35.5 57
t36.5 71.5t87.5 69.5h-145q-54 0 -54 34.5t54 34.5zM374 576q21 -26 21 -43.5t-15 -17.5q-7 0 -26.5 14.5t-36.5 14.5q-35 0 -97.5 -41.5t-62.5 -67.5q0 -17 41.5 -31t86.5 -17q26 0 26 -23q0 -10 -5.5 -16.5t-7.5 -9t-7 -7t-7.5 -6.5t-8.5 -7t-9 -7q-44 -34 -79 -73.5
t-35 -64.5q0 -8 12 -8q85 0 172.5 59.5t134.5 133.5q24 111 43 218h-140z" />
    <glyph glyph-name="uni0919" unicode="&#x919;" horiz-adv-x="541" 
d="M80 645h534q54 0 54 -34.5t-54 -34.5h-154q-12 -58 -12 -119q0 -48 -32 -48h-1q-7 0 -30.5 8t-49.5 8t-81 -21t-55 -41q0 -8 25.5 -15t62 -15t73 -21t62 -40t25.5 -65q0 -59 -50.5 -97.5t-132.5 -38.5t-140.5 41t-58.5 97q0 37 28 37q25 0 40 -34q28 -71 130 -71
q53 0 82.5 19.5t29.5 45.5t-37.5 40.5t-94 28.5t-77.5 25.5t-35.5 34.5t-14.5 39q0 38 80.5 80t141.5 42q19 0 45 -12q-1 6 -1 32.5t10 59.5h-312q-55 0 -55 34.5t55 34.5zM482 381q18 0 37.5 -40t19.5 -64t-20 -24q-15 0 -39.5 31.5t-24.5 48.5t9 32.5t18 15.5z" />
    <glyph glyph-name="uni091A" unicode="&#x91a;" horiz-adv-x="708" 
d="M218 451l149 1q85 0 85 -45q0 -11 -14 -17q-67 -22 -120 -67.5t-53 -85.5q0 -36 55 -36q89 0 168.5 75t109.5 203l11 63h1l6 34h-505q-55 0 -55 34.5t55 34.5h705q55 0 55 -34.5t-55 -34.5h-118q-8 -75 -62 -302q-7 -30 -11.5 -49.5t-11 -46.5t-11 -46t-10.5 -40
t-10.5 -35t-9.5 -26q-8 -24 -16 -24q-10 0 -27 16.5t-17 25.5t40 193q-101 -112 -238 -112q-60 0 -91.5 28.5t-31.5 77.5q0 82 96 148q-96 -2 -146 -2q-18 0 -40.5 24.5t-22.5 37t22 12.5z" />
    <glyph glyph-name="uni091B" unicode="&#x91b;" horiz-adv-x="681" 
d="M645 576q-18 -38 -31 -94q61 -24 61 -102.5t-53.5 -146t-132 -112t-165.5 -71.5t-144 -27q-106 0 -106 69q0 42 34 95t83 96q-41 3 -68.5 23.5t-27.5 54.5q0 50 50.5 114t116.5 101h-175q-55 0 -55 34.5t55 34.5h673q54 0 54 -34.5t-54 -34.5h-115zM608 369q0 52 -35 52
q-32 0 -53 -34.5t-21 -83t33 -66.5q76 66 76 132zM413 576q10 -17 10 -30t-6.5 -23.5t-13 -10.5t-19 15t-29.5 15q-48 0 -119.5 -69.5t-71.5 -107.5q0 -27 50 -27q20 0 51.5 5.5t44 5.5t20.5 -5.5t8 -17t-28 -32.5q-57 -42 -107.5 -97t-50.5 -95q0 -10 12 -10q66 0 157 30.5
t164 79.5q-54 34 -54 105.5t36 123.5t97 58q-2 14 -2 35t13 52h-162z" />
    <glyph glyph-name="uni091C" unicode="&#x91c;" horiz-adv-x="737" 
d="M124 645h708q54 0 54 -34.5t-54 -34.5h-115q-6 -57 -57 -279t-65 -255.5t-21 -34.5q-10 0 -27 16.5t-17 28.5t8.5 50t23 101.5t23.5 113.5v1q-63 -34 -132 -34h-10q3 -9 3 -18q0 -64 -79.5 -113t-181.5 -49q-56 0 -85 36t-29 93q0 90 51 167t112 77q20 0 43.5 -13.5
t23.5 -25.5q0 -8 -7 -11q-13 -7 -27 -10q-60 -21 -91 -78t-31 -117q0 -49 45 -49q72 0 128 34t56 79q0 7 -5 14q-42 18 -42 48q0 22 23 22q12 0 40.5 -9.5t55.5 -9.5q77 0 158 63q7 45 17 94.5t13 67.5h-510q-55 0 -55 34.5t55 34.5z" />
    <glyph glyph-name="uni091D" unicode="&#x91d;" horiz-adv-x="819" 
d="M120 645h800q54 0 54 -34.5t-54 -34.5h-112q-7 -42 -61.5 -274t-68 -263.5t-19.5 -31.5q-11 0 -28.5 14t-17.5 30.5t49 237.5q-120 -51 -211 -64q25 -35 25 -75q0 -90 -128 -117q8 -19 19 -45.5t19 -45t16 -38.5q16 -38 16 -52q0 -22 -21 -22q-25 0 -57 65
q-22 45 -56 129q-12 -1 -37 -1q-90 0 -152 39t-62 104q0 44 32.5 71t86.5 27t95 -45t75 -122q78 17 78 60q0 30 -38 62t-83 56.5t-83 64t-38 78.5q0 77 109 77q76 0 143 -37v118h-290q-55 0 -55 34.5t55 34.5zM249 90h6q-24 53 -49.5 81t-59.5 28q-45 0 -45 -39
q0 -33 40.5 -51.5t107.5 -18.5zM481 538q0 -163 -41 -163q-9 0 -32 13q-69 37 -131 37q-35 0 -35 -18q0 -15 14 -31t31 -27t48.5 -30.5t48.5 -31.5q59 3 143 30t154 64q2 10 41 195h-249q8 -18 8 -38z" />
    <glyph glyph-name="uni091E" unicode="&#x91e;" horiz-adv-x="745" 
d="M91 645h752q54 0 54 -34.5t-54 -34.5h-117q-6 -57 -57 -279t-65 -255.5t-21 -34.5q-10 0 -27 16.5t-17 28.5t8.5 50t22.5 102q15 61 26 124q-43 -29 -96 -50t-92 -26q-26 -77 -88.5 -130t-146.5 -53q-58 0 -88.5 28.5t-30.5 65t19.5 60t41.5 23.5t22 -17q0 -6 -8.5 -22.5
t-8.5 -33.5q0 -37 49 -37q80 0 132 69.5t52 146.5q0 36 -15 58t-49.5 22t-59 -18t-39 -36t-28 -18t-22 8t-8.5 23q0 38 43.5 72.5t109.5 34.5t102 -45t36 -116q0 -10 -1 -16q78 34 101 46t93 63q18 98 27 146h-552q-54 0 -54 34.5t54 34.5z" />
    <glyph glyph-name="uni091F" unicode="&#x91f;" horiz-adv-x="599" 
d="M95 645h611q55 0 55 -34.5t-55 -34.5h-191q-34 -63 -38 -130q-1 -15 -1 -49.5t-15 -41.5q-8 -8 -19 -8t-36.5 29.5t-50.5 29.5q-47 0 -132 -83.5t-85 -125.5q0 -26 48 -38.5t113 -12.5t108.5 11.5t59.5 25.5t28 25.5t21.5 11.5t20.5 -19.5t11 -36.5q0 -35 -75.5 -62
t-170.5 -27q-101 0 -170 25q-35 12 -55 35t-20 54q0 52 54 123.5t125.5 121.5t117.5 50q22 0 54 -20q2 62 30 112h-343q-55 0 -55 34.5t55 34.5z" />
    <glyph glyph-name="uni0920" unicode="&#x920;" horiz-adv-x="560" 
d="M83 645h579q55 0 55 -34.5t-55 -34.5h-192q-6 -63 -29 -119q43 -27 71 -80.5t28 -103t-55 -97t-130.5 -74t-149 -26.5t-117.5 27t-44 79t52.5 121.5t132 120t148.5 51.5q10 28 14 41.5t11 59.5h-319q-54 0 -54 34.5t54 34.5zM204 146q49 0 111 21.5t106.5 55t44.5 66.5
t-28 75.5t-59 42.5q-46 0 -108.5 -41t-106.5 -94t-44 -87q0 -39 84 -39z" />
    <glyph glyph-name="uni0921" unicode="&#x921;" horiz-adv-x="502" 
d="M84 645h522q54 0 54 -34.5t-54 -34.5h-146q-12 -58 -12 -119q0 -48 -32 -48h-1q-7 0 -30.5 8t-49.5 8t-81 -21t-55 -41q0 -8 25.5 -15t62 -15t73 -21t62 -40t25.5 -65q0 -59 -50.5 -97.5t-132.5 -38.5t-140.5 41t-58.5 97q0 37 28 37t41 -34q27 -70 129 -70q52 0 81 19.5
t29 44t-37.5 39t-93.5 29t-77 26t-35 34.5t-14 40q0 40 80 82t142 42q24 0 44 -11v16q0 40 10 73h-308q-54 0 -54 34.5t54 34.5z" />
    <glyph glyph-name="uni0922" unicode="&#x922;" horiz-adv-x="593" 
d="M493 481.5q-3 -32.5 -3 -78t-28 -45.5q-10 0 -37.5 25t-56.5 25q-43 0 -147 -88t-104 -138t97 -64q40 71 97 121.5t100.5 50.5t84 -43.5t40.5 -79.5t-38.5 -64.5t-98.5 -43.5t-139 -15q-143 0 -201 71q-27 33 -27 63q0 54 63 128t144 126.5t133 52.5q23 0 51 -18
q2 65 20 109h-368q-55 0 -55 34.5t55 34.5h590q54 0 54 -34.5t-54 -34.5h-159q-1 -7 -5.5 -34.5t-7.5 -60zM412 218q-49 0 -118 -104q70 2 117 18.5t47 45.5q0 12 -14 26t-32 14z" />
    <glyph glyph-name="uni0923" unicode="&#x923;" horiz-adv-x="684" 
d="M27 645h774q54 0 54 -34.5t-54 -34.5h-119q-8 -75 -62 -302q-7 -30 -11.5 -49.5t-11 -46.5t-11 -46t-10.5 -40t-10.5 -35t-9.5 -26q-8 -24 -16 -24q-10 0 -27 16.5t-17 28.5t8.5 50t23 101.5t23 110.5t48.5 262h-174q26 -35 26 -62q0 -90 -32 -173t-91 -137t-130 -54
q-54 0 -83.5 49.5t-29.5 126.5q0 128 51 250h-109q-55 0 -55 34.5t55 34.5zM208 221q60 0 111.5 84.5t51.5 176.5q0 39 -10 94h-142q-1 -2 -19 -50q-39 -106 -39 -205.5t47 -99.5z" />
    <glyph glyph-name="uni0924" unicode="&#x924;" horiz-adv-x="591" 
d="M98 645h606q54 0 54 -34.5t-54 -34.5h-118q-4 -32 -33 -158t-40.5 -178.5t-19 -87.5t-17.5 -72q-19 -73 -30 -73t-27.5 14t-16.5 29t46 253q-78 22 -166 22q-153 0 -153 -86q0 -74 49 -117q20 -18 40.5 -32t34.5 -27.5t14 -28.5q0 -27 -34 -27q-53 0 -118 79t-65 165
q0 72 59 107.5t162 35.5t189 -27q8 41 22.5 110t20.5 99h-405q-55 0 -55 34.5t55 34.5z" />
    <glyph glyph-name="uni0925" unicode="&#x925;" horiz-adv-x="611" 
d="M484 645h239q54 0 54 -34.5t-54 -34.5h-117q-6 -57 -57 -279t-65 -256t-21 -34q-10 0 -27 16.5t-17 28.5t7 44q30 135 41 187q-67 -57 -153 -88.5t-174 -31.5q-28 0 -54.5 25t-26.5 49q0 18 73 65q29 20 65 53t58 67q-57 7 -99 49.5t-42 99.5t33.5 88t87 31t91 -39
t37.5 -99q0 -88 -62.5 -177.5t-164.5 -147.5q103 3 198.5 50t156.5 127q24 128 32 172h-39q-55 0 -55 34.5t55 34.5zM281 471q15 40 15 75t-18.5 58t-42 23t-37.5 -14t-14 -38q0 -60 57 -87q15 -9 40 -17z" />
    <glyph glyph-name="uni0926" unicode="&#x926;" horiz-adv-x="512" 
d="M83 645h520q55 0 55 -34.5t-55 -34.5h-139q-36 -86 -36 -175q0 -30 -12 -38q-9 -11 -20 -11t-37 18.5t-55 18.5q-49 0 -118 -82t-69 -135q0 -56 123 -56h18q27 58 63 93.5t73.5 35.5t56.5 -20.5t19 -53.5q0 -44 -47 -76t-116 -44q-26 -71 -28 -141.5t-6 -91t-20 -20.5
q-39 0 -39 129q0 56 18 118q-86 2 -138 34t-52 86t41.5 124t104 123t113.5 53q25 0 60 -15v1q0 70 37 125h-315q-54 0 -54 34.5t54 34.5zM391 183q-24 -6 -52 -55q59 16 65 45q2 7 -1.5 9.5t-11.5 0.5z" />
    <glyph glyph-name="uni0927" unicode="&#x927;" horiz-adv-x="631" 
d="M525 645h218q55 0 55 -34.5t-55 -34.5h-117q-8 -75 -62 -302q-7 -30 -11.5 -49.5t-11 -46.5t-11 -46t-10.5 -40t-10.5 -35t-9.5 -26q-9 -24 -16 -24q-10 0 -27 16.5t-17 27.5t37 180q-63 -52 -142 -84t-155 -32q-38 0 -59 18t-21 50q0 53 72 127h-13q-42 0 -63.5 22
t-21.5 60q0 62 44.5 134t108 119.5t114.5 47.5q35 0 54.5 -20t19.5 -55q0 -70 -71.5 -126.5t-157.5 -56.5q-20 0 -38 6q-13 -31 -13 -47.5t5 -20.5t19.5 -4t30.5 2.5t33 8t27 8.5q25 8 41.5 15.5t25.5 7.5t18.5 -11t9.5 -23t-42 -37.5t-84 -72t-42 -75.5q0 -10 14 -10
q72 0 163.5 52.5t148.5 123.5q20 105 40 218h-18q-55 0 -55 34.5t55 34.5zM353 611q0 19 -23.5 19t-69 -40t-80.5 -93q8 -3 16 -3q51 0 104 38.5t53 78.5z" />
    <glyph glyph-name="uni0928" unicode="&#x928;" horiz-adv-x="632" 
d="M89 645h655q55 0 55 -34.5t-55 -34.5h-119q-10 -109 -83 -436q-30 -133 -50 -133q-12 0 -25.5 12.5t-13.5 25.5t7 52t19 105q13 73 33 194q-46 -13 -177 -36q14 -32 14 -100t-28 -119.5t-86 -51.5t-126 76t-68 136q0 37 35 59q40 24 79.5 33t59.5 13.5t61 11.5
q53 9 249 55q3 17 8 51.5t8 51.5h-452q-55 0 -55 34.5t55 34.5zM266 189.5q11 27.5 11 56.5t-7 103q-148 -27 -148 -60q0 -35 40 -81t66.5 -46t37.5 27.5z" />
    <glyph glyph-name="uni092A" unicode="&#x92a;" horiz-adv-x="529" 
d="M34 645h612q54 0 54 -34.5t-54 -34.5h-118q-7 -65 -32 -173.5t-38 -166t-20.5 -88.5t-17.5 -68q-19 -73 -32 -73q-10 0 -27 16.5t-17 28.5t7 46t20 94.5t22 105.5q-95 -118 -198 -118q-52 0 -79 51.5t-27 151.5t30 193h-85q-55 0 -55 34.5t55 34.5zM167 358
q0 -47 10 -75.5t26 -28.5q64 0 140.5 90.5t93.5 186.5h1l8 45h-242q-37 -98 -37 -218z" />
    <glyph glyph-name="uni092B" unicode="&#x92b;" horiz-adv-x="716" 
d="M5 645h780q55 0 55 -34.5t-55 -34.5h-313q-3 -39 -31 -181q122 75 169 75q94 0 94 -110q0 -99 -38.5 -188.5t-97.5 -89.5q-17 0 -36.5 18.5t-19.5 29t3.5 13.5t11.5 4.5t12 2.5q43 7 67 62.5t24 135.5q0 48 -21 48q-39 0 -186 -95q-43 -247 -62 -279q-9 -15 -20.5 -15
t-22.5 11t-11 24.5t29 202.5q-108 -69 -194 -69q-68 0 -68 132.5t47 267.5h-116q-55 0 -55 34.5t55 34.5zM166.5 447q-14.5 -76 -14.5 -135t15 -59q48 0 183 83q16 115 39 240h-185q-23 -53 -37.5 -129z" />
    <glyph glyph-name="uni092C" unicode="&#x92c;" horiz-adv-x="568" 
d="M90 645h585q54 0 54 -34.5t-54 -34.5h-120q-8 -95 -75 -370q-31 -131 -50 -165t-31 -34t-20 10.5t-8 24t9.5 53t12.5 69.5q-45 -39 -111 -67.5t-119 -28.5q-110 0 -110 128q0 68 33 141t89 123.5t112.5 50.5t91 -58t50.5 -144q9 39 25 125q8 46 27 142h-391
q-55 0 -55 34.5t55 34.5zM175 348q-49 -86 -49 -149t44 -63q58 0 136 45q-68 68 -131 167zM276 439q-27 0 -59 -34q58 -104 132 -196q23 17 39 31q-41 199 -112 199z" />
    <glyph glyph-name="uni092D" unicode="&#x92d;" horiz-adv-x="664" 
d="M517 645h252q54 0 54 -34.5t-54 -34.5h-116q-7 -65 -32 -172.5t-38.5 -166.5t-20.5 -89t-18 -68q-19 -73 -36 -73q-12 0 -25 12.5t-13 25.5t7 48.5t20 99t22 108.5q-35 -6 -173 -19q-31 -92 -78.5 -149.5t-99.5 -57.5t-93.5 52t-41.5 106q0 59 78 80q64 17 170 28
q7 1 11 1q9 29 16 72q-32 -5 -57 -5q-60 0 -88 28.5t-28 83.5t42 112t88.5 57t74 -27.5t37 -64t9.5 -99.5t-20 -149q136 18 166 19q18 91 38 207h-53q-55 0 -55 34.5t55 34.5zM260 470q27 0 55 7q1 8 1 25q0 115 -45 115q-23 0 -44.5 -35t-21.5 -66q0 -46 55 -46z
M122.5 170.5q19.5 -27.5 42.5 -27.5t51.5 36t51.5 94q-89 -9 -108.5 -14t-32.5 -10q-24 -9 -24 -30t19.5 -48.5z" />
    <glyph glyph-name="uni092E" unicode="&#x92e;" horiz-adv-x="652" 
d="M250 553l1 23h-148q-55 0 -55 34.5t55 34.5h657q54 0 54 -34.5t-54 -34.5h-118q-6 -57 -31.5 -167t-34 -148.5t-14 -63.5t-13.5 -57.5t-14 -53.5t-13 -40q-14 -39 -25 -39q-12 0 -25.5 12.5t-13.5 25.5t7.5 51.5t21.5 106.5q18 86 30 151q-65 -16 -210 -37
q-36 -221 -135 -221q-50 0 -94 55t-44 103.5t54 75t153 43.5q9 97 9 180zM170 163q40 0 62 141q-126 -22 -126 -57q0 -25 22.5 -54.5t41.5 -29.5zM326 576v-8q0 -96 -9 -182l213 35q26 139 29 155h-233z" />
    <glyph glyph-name="uni092F" unicode="&#x92f;" horiz-adv-x="625" 
d="M33 645h691q54 0 54 -34.5t-54 -34.5h-118q-7 -65 -32 -172.5t-38.5 -166.5t-20.5 -89t-17 -68q-20 -73 -37 -73q-12 0 -25.5 12.5t-13.5 25.5t7 48.5t20.5 99t21.5 107.5q-68 -64 -158.5 -100.5t-176.5 -36.5q-24 0 -46.5 22t-22.5 47q0 9 20.5 26t49.5 40t58 51
t49.5 66.5t20.5 79.5q0 60 -47 60q-23 0 -46 -17.5t-34 -17.5t-27 17t-16 31q0 2 2 8h-64q-55 0 -55 34.5t55 34.5zM341 500q0 -74 -54 -148.5t-132 -124.5q111 7 219.5 89t135.5 190l13 70h-198q16 -34 16 -76z" />
    <glyph glyph-name="uni0930" unicode="&#x930;" horiz-adv-x="427" 
d="M81 645h445q55 0 55 -34.5t-55 -34.5h-102q23 -37 23 -89q0 -106 -81 -187.5t-194 -85.5q41 -62 54 -80.5t48 -63.5q73 -93 73 -107q0 -24 -25 -24q-31 0 -157 164q-42 54 -76.5 111t-34.5 78v1q0 14 6 25t16.5 11t37 -21t46.5 -21q83 0 145.5 59.5t62.5 136t-62 76.5
q-39 0 -57 -25q-5 -5 -10 -12.5t-9 -11.5q-7 -7 -19.5 -7t-32 15.5t-19.5 29.5t9 28h-87q-54 0 -54 34.5t54 34.5z" />
    <glyph glyph-name="uni0931" unicode="&#x931;" horiz-adv-x="434" 
d="M88 645h445q55 0 55 -34.5t-55 -34.5h-102q23 -37 23 -89q0 -106 -81 -187.5t-194 -85.5q41 -62 54 -80.5t49 -63.5q72 -93 72 -107q0 -24 -25 -24q-31 0 -157 164q-42 54 -76.5 111t-34.5 78v1q0 14 6 25t16.5 11t37 -21t46.5 -21q83 0 145.5 59.5t62.5 136t-62 76.5
q-39 0 -57 -25q-5 -5 -10 -12.5t-9 -11.5q-7 -7 -19.5 -7t-32 15.5t-19.5 29.5t9 28h-87q-54 0 -54 34.5t54 34.5zM34 78q18 0 37.5 -40t19.5 -64.5t-20 -24.5q-15 0 -39.5 32t-24.5 48.5t9 32.5t18 16z" />
    <glyph glyph-name="uni0932" unicode="&#x932;" horiz-adv-x="733" 
d="M102 645h744q54 0 54 -34.5t-54 -34.5h-120q-6 -57 -31.5 -167t-34 -148.5t-14 -63.5t-13.5 -57.5t-14 -53.5t-13 -40q-14 -39 -25 -39q-12 0 -25.5 12.5t-13.5 25.5t7.5 51.5t21.5 106.5q15 73 37 186q-51 -46 -69 -62q-153 -138 -188 -138h-1q-25 0 -25 28q0 10 9.5 43
t9.5 60q0 79 -58 79q-63 0 -111.5 -55.5t-48.5 -132.5q0 -58 21 -95.5t56 -37.5q24 0 44 10.5t30 10.5q28 0 28 -31q0 -21 -29 -39.5t-66 -18.5q-73 0 -115.5 61t-42.5 148q0 110 67 184t167 74q60 0 91.5 -43.5t31.5 -102.5q0 -9 -2 -29q111 95 122.5 106t28 28.5t28 30.5
t27 30.5t20.5 23.5l10 55h-541q-54 0 -54 34.5t54 34.5z" />
    <glyph glyph-name="uni0933" unicode="&#x933;" horiz-adv-x="760" 
d="M106 645h739q54 0 54 -34.5t-54 -34.5h-119q-5 -19 -20 -56.5t-23.5 -63.5t-12.5 -36q47 -32 47 -93q0 -92 -43 -181q-22 -43 -60 -71t-85 -28q-95 0 -157 110q-128 -113 -198 -113q-38 0 -75.5 30.5t-37.5 63.5q0 46 25 109.5t73 116t98.5 52.5t88 -39.5t57.5 -89.5
q73 72 123.5 111t87.5 39h1v2q0 25 11 65t27 72h-547q-55 0 -55 34.5t55 34.5zM172 116q33 0 78 33t110 96q-2 2 -16 23.5t-19.5 28t-17.5 19.5q-21 24 -43 24q-41 0 -83 -72t-42 -120q0 -32 33 -32zM527 115q49 0 82 71.5t33 143.5q0 30 -28 30q-24 0 -55.5 -27.5
t-46.5 -41t-48.5 -46.5t-47.5 -46q49 -84 111 -84z" />
    <glyph glyph-name="uni0935" unicode="&#x935;" horiz-adv-x="527" 
d="M89 645h557q54 0 54 -34.5t-54 -34.5h-116q-10 -78 -55 -267q-71 -302 -101 -302q-10 0 -18.5 9.5t-9.5 23t3 52.5t5 61q-44 -41 -99.5 -66t-106.5 -25t-74 36.5t-23 99.5t26 132t77.5 118.5t113.5 49.5q50 0 87 -60.5t49 -141.5q7 32 27.5 135.5t31.5 144.5h-374
q-55 0 -55 34.5t55 34.5zM161 135q45 0 98 30t93 76q-11 77 -38 129.5t-57 52.5t-61.5 -37.5t-51 -90.5t-19.5 -97q0 -63 36 -63z" />
    <glyph glyph-name="uni0936" unicode="&#x936;" horiz-adv-x="713" 
d="M593 645h230q55 0 55 -34.5t-55 -34.5h-116q-6 -57 -31.5 -167t-34 -148.5t-14 -63.5t-13.5 -57.5t-14 -53.5t-13 -40q-14 -39 -25 -39q-12 0 -25.5 12.5t-13.5 25.5t7.5 51.5t21.5 106.5t21.5 106.5t17.5 90.5q20 108 33 176h-31q-55 0 -55 34.5t55 34.5zM64 332
q0 15 5.5 25.5t17.5 10.5t29.5 -15t41 -30t53.5 -15q58 0 107.5 25.5t77.5 67.5q-33 -9 -70 -9q-80 0 -129.5 41t-49.5 99.5t46 98.5t127 40t130 -49t49 -124q0 -102 -82 -182t-205 -80h-10q34 -48 38 -54q95 -129 95 -149q0 -25 -27 -25q-20 0 -58 46q-28 34 -65 83
q-121 157 -121 194v1zM260 474.5q29 -20.5 69.5 -20.5t92.5 10q2 18 2 28q0 46 -29.5 75t-72.5 29t-67 -18.5t-24 -50.5t29 -52.5z" />
    <glyph glyph-name="uni0937" unicode="&#x937;" horiz-adv-x="523" 
d="M39 645h597q55 0 55 -34.5t-55 -34.5h-103q-7 -65 -32 -172.5t-38.5 -166.5t-20.5 -89t-18 -68q-19 -73 -36 -73q-12 0 -25 12.5t-13 23.5t49 256q-103 -130 -203 -130q-51 0 -77.5 53t-26.5 151t30 203h-83q-55 0 -55 34.5t55 34.5zM206 244q50 0 109 61
q-72 93 -130 202q-17 -69 -17 -136q0 -127 38 -127zM440 519l10 57h-220q64 -131 124 -226q63 80 86 169z" />
    <glyph glyph-name="uni0938" unicode="&#x938;" horiz-adv-x="729" 
d="M89 645h751q55 0 55 -34.5t-55 -34.5h-117q-6 -57 -31.5 -167t-34 -148.5t-14 -63.5t-13.5 -57.5t-14 -53.5t-13 -40q-14 -39 -25 -39q-12 0 -25.5 12.5t-13.5 25.5t6.5 47.5t20 98.5t21.5 107q-125 -42 -311 -44q-49 -23 -104 -26q3 -4 16.5 -23.5t21.5 -29.5
q100 -133 100 -147q0 -25 -25 -25q-29 0 -136 135.5t-107 165.5q0 10 6 17q7 17 20.5 17t42 -21.5t55.5 -21.5q77 0 138 59t61 132.5t-61 73.5q-36 0 -63 -34q-5 -7 -8 -11q-8 -11 -21.5 -11t-33.5 16t-20 30t9 26h-78q-55 0 -55 34.5t55 34.5zM441 485q0 -88 -69 -162
q132 16 231 58q16 81 37 195h-223q24 -38 24 -91z" />
    <glyph glyph-name="uni0939" unicode="&#x939;" horiz-adv-x="482" 
d="M409 409l-86 3q-99 0 -99 -49q0 -24 16 -43q6 1 19 1q78 0 120.5 -39t42.5 -97q0 -30 -11 -53t-32 -23q-18 0 -18 44q0 96 -99 96q-65 0 -100.5 -33.5t-35.5 -90.5q0 -80 52 -120.5t133 -43.5q55 -3 55 -22q0 -15 -22 -24.5t-58 -9.5q-102 0 -169.5 62.5t-67.5 159.5
q0 63 33 111t92 69q-31 34 -31 77.5t49 70t109 26.5t86 -5q-2 54 -13 100h-238q-54 0 -54 34.5t54 34.5h434q55 0 55 -34.5t-55 -34.5h-118q10 -32 10 -62q0 -94 -33 -102q-9 -3 -20 -3z" />
    <glyph glyph-name="uni093C" unicode="&#x93c;" horiz-adv-x="0" 
d="M-72 3q18 0 37.5 -40t19.5 -64.5t-20 -24.5q-15 0 -39.5 32t-24.5 48.5t9 32.5t18 16z" />
    <glyph glyph-name="uni093D" unicode="&#x93d;" horiz-adv-x="538" 
d="M490.5 303q29.5 -29 29.5 -71t-42.5 -87.5t-106.5 -71.5t-131.5 -26t-127.5 49.5t-60 93.5q0 30 19 30q17 0 65 -49q17 -18 43.5 -33.5t53.5 -15.5q68 0 132 39t64 77q0 27 -44 51.5t-96.5 41.5t-96.5 44.5t-44 59.5q0 22 10 50t22 42q32 39 123.5 64.5t168.5 25.5
q29 0 49.5 -18.5t20.5 -36.5q0 -10 -18 -14.5t-65 -9t-98.5 -14.5t-89 -30.5t-37.5 -39t29.5 -34.5t71.5 -32.5t84 -36t71.5 -48.5z" />
    <glyph glyph-name="uni093E" unicode="&#x93e;" horiz-adv-x="281" 
d="M68 645h316q54 0 54 -34.5t-54 -34.5h-117q-8 -75 -62 -302q-7 -30 -11.5 -49.5t-11 -46.5t-11 -46t-10.5 -40t-10.5 -35t-8.5 -26q-10 -24 -17 -24q-10 0 -27.5 16.5t-17.5 28.5t8.5 50.5t23 101t22 103.5t17.5 93q20 108 33 176h-116q-55 0 -55 34.5t55 34.5z" />
    <glyph glyph-name="uni093F" unicode="&#x93f;" 
d="M69 645h100q-19 36 -19 81q0 93 85 156.5t244 63.5q106 0 208 -40t168 -95t106 -108.5t40 -84.5q0 -17 -19 -17q-21 0 -82 71q-61 72 -156 132q-47 30 -116 50.5t-146 20.5q-131 0 -193 -46t-62 -111q0 -30 23 -73h140q55 0 55 -34.5t-55 -34.5h-136q-8 -75 -62 -302
q-7 -30 -11.5 -49.5t-11 -46.5t-11 -46t-10.5 -40t-10.5 -35t-9.5 -26q-9 -24 -16 -24q-10 0 -27.5 16.5t-17.5 28.5t8.5 50.5t23 101t22 103.5t17.5 93q20 108 33 176h-102q-54 0 -54 34.5t54 34.5z" />
    <glyph glyph-name="uni0940" unicode="&#x940;" horiz-adv-x="270" 
d="M379 645q55 0 55 -34.5t-55 -34.5h-130q-12 -101 -37 -222q-66 -347 -114 -347q-11 0 -18.5 10t-7.5 27.5t43.5 210t58.5 321.5h-316q-54 0 -54 34.5t54 34.5h72q14 55 48 124.5t86 128t99 58.5q97 0 97 -206q0 -58 -4 -105h123zM183 716q0 160 -29 160q-24 0 -72.5 -77
t-75.5 -154h175q2 48 2 71z" />
    <glyph glyph-name="uni0941" unicode="&#x941;" horiz-adv-x="0" 
d="M-145 -111q0 44 -51 44q-22 0 -39 -12.5t-26 -12.5t-24 9t-15 17q0 18 35.5 36.5t78.5 18.5t72.5 -27t29.5 -69q0 -67 -66 -106t-167 -39t-186 36.5t-85 66.5q0 18 22 18q12 0 44 -15q96 -46 210 -46q76 0 121.5 22.5t45.5 58.5z" />
    <glyph glyph-name="uni0942" unicode="&#x942;" horiz-adv-x="0" 
d="M-188 -181q64 0 64 -17t-19 -27.5t-50 -10.5q-58 0 -96.5 32.5t-38.5 78t31.5 76.5t87.5 31q81 0 229 -96q73 -45 126.5 -87t53.5 -58q0 -21 -22 -21q-15 0 -90 51t-127.5 81.5t-92.5 49t-68.5 18.5t-44 -13.5t-15.5 -36.5t21 -37t51 -14z" />
    <glyph glyph-name="uni0943" unicode="&#x943;" horiz-adv-x="0" 
d="M-395 -215q0 65 79 131t146 66q25 0 47 -23t22 -40t-17 -17q-7 0 -22.5 9t-27.5 9q-37 0 -99.5 -49.5t-62.5 -84.5q0 -19 25.5 -30.5t65.5 -11.5t70 7t45.5 7t26 -9t10.5 -20q0 -21 -44 -34t-111 -13t-110 27.5t-43 75.5z" />
    <glyph glyph-name="uni0944" unicode="&#x944;" horiz-adv-x="0" 
d="M-156 -220v-1q0 -8 -12.5 -13.5t-51.5 -17.5q-170 -53 -170 -89q0 -22 96 -22q31 0 73.5 6t55.5 6q29 0 29 -14q0 -22 -56 -40.5t-120 -18.5q-99 0 -132 47q-12 17 -12 36q0 37 44 68.5t108 51.5q-36 12 -59 32.5t-23 46.5q0 52 69 88t143 36q17 0 38 -21.5t21 -37.5
q0 -13 -16 -13q-6 0 -19 5t-23 5q-46 0 -95 -19t-49 -42q0 -19 40.5 -30t80.5 -21.5t40 -27.5z" />
    <glyph glyph-name="uni0945" unicode="&#x945;" horiz-adv-x="0" 
d="M-132 884l-3 -19q0 -41 41 -69t96 -28t84.5 8.5t43 21.5t21.5 28t10 28q5 30 18 30t29.5 -14t16.5 -26q0 -48 -56 -92.5t-148 -44.5t-160 47t-68 129q0 33 24 33q16 0 33.5 -11t17.5 -21z" />
    <glyph glyph-name="uni0947" unicode="&#x947;" horiz-adv-x="0" 
d="M-278 954q0 16 15 16q28 0 67 -32t39 -62.5t23.5 -72.5t52.5 -73q76 -79 76 -96q0 -21 -27.5 -21t-87 66t-109 149.5t-49.5 125.5z" />
    <glyph glyph-name="uni0948" unicode="&#x948;" horiz-adv-x="0" 
d="M83 926q0 -78 -29.5 -133t-78.5 -55h-9q26 -76 26 -96q0 -35 -29 -35q-19 0 -35 36t-40.5 101t-55.5 110q-24 32 -24 55q0 28 34 28q39 0 89 -110q14 -25 31 -25q26 0 38.5 34.5t12.5 68.5t-4 61t-4 36q0 29 31 29q47 0 47 -105z" />
    <glyph glyph-name="uni0949" unicode="&#x949;" 
d="M55 645h316q54 0 54 -34.5t-54 -34.5h-117q-8 -75 -62 -302q-7 -30 -11.5 -49.5t-11 -46.5t-11 -46t-10.5 -40t-10.5 -35t-9.5 -26q-9 -24 -16 -24q-10 0 -27.5 16.5t-17.5 28.5t8.5 50.5t23 101t22 103.5t17.5 93q20 108 33 176h-116q-55 0 -55 34.5t55 34.5zM105 884
l-3 -19q0 -41 41 -69t96 -28t84.5 8.5t43 21.5t21.5 28t10 28q5 30 18 30t29.5 -14t16.5 -26q0 -48 -56 -92.5t-148 -44.5t-160 47t-68 129q0 33 24 33q16 0 33.5 -11t17.5 -21z" />
    <glyph glyph-name="uni094B" unicode="&#x94b;" 
d="M371 645q54 0 54 -34.5t-54 -34.5h-117q-8 -75 -62 -302q-7 -30 -11.5 -49.5t-11 -46.5t-11 -46t-10.5 -40t-10.5 -35t-9.5 -26q-9 -24 -16 -24q-10 0 -27.5 16.5t-17.5 28.5t8.5 50.5t23 101t22 103.5t17.5 93q20 108 33 176h-116q-55 0 -55 34.5t55 34.5h117
q-61 57 -126.5 158.5t-65.5 150.5q0 16 15 16q28 0 67 -32t39 -58q0 -70 101 -180q40 -43 47 -55h122z" />
    <glyph glyph-name="uni094C" unicode="&#x94c;" 
d="M371 645q54 0 54 -34.5t-54 -34.5h-117q-8 -75 -62 -302q-7 -30 -11.5 -49.5t-11 -46.5t-11 -46t-10.5 -40t-10.5 -35t-9.5 -26q-9 -24 -16 -24q-10 0 -27.5 16.5t-17.5 28.5t8.5 50.5t23 101t22 103.5t17.5 93q20 108 33 176h-116q-55 0 -55 34.5t55 34.5h127
q-7 15 -22 55q-36 101 -66.5 143.5t-30.5 65.5q0 28 34 28q39 0 89 -110q14 -25 31 -25q26 0 38.5 34.5t12.5 68.5t-4 61t-4 36q0 29 31 29q47 0 47 -105q0 -78 -29.5 -133t-78.5 -55h-9q20 -58 25 -93h125z" />
    <glyph glyph-name="uni094D" unicode="&#x94d;" horiz-adv-x="0" 
d="M-249 -24q34 0 114.5 -39.5t147.5 -87t67 -68.5q0 -15 -11.5 -15t-40.5 16t-80 45.5t-81.5 45.5t-70.5 32t-55.5 26t-15.5 20.5t8 17.5t18 7z" />
    <glyph glyph-name="uni0950" unicode="&#x950;" horiz-adv-x="914" 
d="M665 753l-3 -19q0 -41 41 -69t96 -28t84.5 8.5t43 21.5t21.5 28t10 28q5 30 18 30t29.5 -14t16.5 -26q0 -48 -56 -92.5t-148 -44.5t-160 47t-68 129q0 33 24 33q16 0 33.5 -11t17.5 -21zM777.5 504q46.5 26 91 26t72 -37t27.5 -102q0 -162 -77 -258t-179 -96
q-26 0 -48.5 12.5t-22.5 29.5q0 8 12 8q115 0 176.5 88t61.5 222q0 57 -34 57q-31 0 -68 -23.5t-67.5 -52.5t-74 -58.5t-82.5 -38.5q17 -28 17 -61q0 -80 -77 -133t-193.5 -53t-183.5 53t-67 140q0 45 23.5 80t60.5 35q24 0 24 -27q0 -15 -16.5 -42t-16.5 -52
q0 -53 46.5 -84.5t127 -31.5t137 32t56.5 79.5t-45 71.5q-45 -20 -87 -20q-21 0 -42.5 22.5t-21.5 39.5q0 32 75 32q35 0 63 -7q51 30 85.5 69.5t34.5 75t-19.5 53.5t-50.5 18q-70 0 -95 -54q-2 -5 -3.5 -21t-9.5 -24t-18.5 -8t-26 19t-15.5 33q0 47 50 88t115.5 41t104 -38
t38.5 -91t-29.5 -101.5t-77.5 -85.5q66 23 167 116q36 33 82.5 59zM839 784q21 -37 21 -61t-18 -24t-46 29t-28 47t10.5 32t23.5 14q16 0 37 -37z" />
    <glyph glyph-name="uni0958" unicode="&#x958;" horiz-adv-x="772" 
d="M95 645h719q54 0 54 -34.5t-54 -34.5h-302q-4 -50 -42 -213q110 79 160 79t80.5 -34t30.5 -80.5t-32.5 -105t-70 -96t-57.5 -37.5q-11 0 -21 7t-10 17t19.5 32.5t42.5 47t42.5 65.5t19.5 80t-32 39q-28 0 -73 -28.5t-121 -86.5q-30 -132 -40 -162.5t-18 -51.5
q-17 -41 -35 -41q-12 0 -21 9.5t-9 22.5t32 156q-138 -96 -212 -96q-33 0 -67 27.5t-34 64t34 99.5t88.5 113.5t103.5 50.5q67 0 123 -88q24 142 38 210h-336q-55 0 -55 34.5t55 34.5zM275 382q-40 0 -98.5 -74t-58.5 -112q0 -27 33 -27q44 0 97.5 31.5t129.5 90.5v3l-30 40
q-10 14 -32 31t-41 17zM120 22q18 0 37.5 -40t19.5 -64.5t-20 -24.5q-15 0 -39.5 32t-24.5 48.5t9 32.5t18 16z" />
    <glyph glyph-name="uni0959" unicode="&#x959;" horiz-adv-x="817" 
d="M75 645h860q54 0 54 -34.5t-54 -34.5h-117q-6 -60 -64.5 -314.5t-77.5 -254.5q-11 0 -26.5 16.5t-15.5 28t30 146.5q-129 -96 -288 -96q-127 0 -234 158q-37 4 -63.5 23t-26.5 43q0 47 49 47q43 0 81 -49q83 14 136 57.5t53 108.5t-59 65q-40 0 -74 -32
q-11 -11 -22.5 -11t-31 20t-19.5 35q0 3 2 9h-92q-54 0 -54 34.5t54 34.5zM529 295.5q29 -19.5 68 -19.5t65 13.5t26 28.5q0 28 -32.5 55.5t-73.5 27.5q-82 0 -82 -55q0 -31 29 -50.5zM445 492q0 -81 -62.5 -145t-158.5 -82q30 -42 65 -66.5t87 -24.5q103 0 199 49
q-58 4 -95.5 39.5t-37.5 84t38 82t107 33.5t120 -51q13 68 31 165h-313q20 -37 20 -84zM98 44q18 0 37.5 -40t19.5 -64.5t-20 -24.5q-15 0 -39.5 32t-24.5 48.5t9 32.5t18 16z" />
    <glyph glyph-name="uni095A" unicode="&#x95a;" horiz-adv-x="637" 
d="M115 645h645q55 0 55 -34.5t-55 -34.5h-117q-6 -60 -64.5 -314.5t-77.5 -254.5q-11 0 -28 16.5t-17 28.5t8.5 50t23 101.5t22 104t17.5 92.5q20 108 33 176h-175q2 -32 2 -95t-9 -127.5t-27.5 -120t-51 -88.5t-75.5 -33q-57 0 -102 60t-45 116t40.5 80.5t95 24.5t93.5 -6
q7 73 7 125.5t1 63.5h-199q-55 0 -55 34.5t55 34.5zM222 179q53 0 76 144q-40 6 -69 6q-81 0 -81 -48q0 -30 23 -66t51 -36zM92 44q18 0 37.5 -40t19.5 -64.5t-20 -24.5q-15 0 -39.5 32t-24.5 48.5t9 32.5t18 16z" />
    <glyph glyph-name="uni095B" unicode="&#x95b;" horiz-adv-x="737" 
d="M124 645h708q54 0 54 -34.5t-54 -34.5h-115q-6 -57 -57 -279t-65 -255.5t-21 -34.5q-10 0 -27 16.5t-17 28.5t8.5 50t23 101.5t23.5 113.5v1q-63 -34 -132 -34h-10q3 -9 3 -18q0 -64 -79.5 -113t-181.5 -49q-56 0 -85 36t-29 93q0 90 51 167t112 77q20 0 43.5 -13.5
t23.5 -25.5q0 -8 -7 -11q-13 -7 -27 -10q-60 -21 -91 -78t-31 -117q0 -49 45 -49q72 0 128 34t56 79q0 7 -5 14q-42 18 -42 48q0 22 23 22q12 0 40.5 -9.5t55.5 -9.5q77 0 158 63q7 45 17 94.5t13 67.5h-510q-55 0 -55 34.5t55 34.5zM209 44q18 0 37.5 -40t19.5 -64.5
t-20 -24.5q-15 0 -39.5 32t-24.5 48.5t9 32.5t18 16z" />
    <glyph glyph-name="uni095C" unicode="&#x95c;" horiz-adv-x="502" 
d="M84 645h522q54 0 54 -34.5t-54 -34.5h-146q-12 -58 -12 -119q0 -48 -32 -48h-1q-7 0 -30.5 8t-49.5 8t-81 -21t-55 -41q0 -8 25.5 -15t62 -15t73 -21t62 -40t25.5 -65q0 -59 -50.5 -97.5t-132.5 -38.5t-140.5 41t-58.5 97q0 37 28 37t41 -34q27 -70 129 -70q52 0 81 19.5
t29 44t-37.5 39t-93.5 29t-77 26t-35 34.5t-14 40q0 40 80 82t142 42q24 0 44 -11v16q0 40 10 73h-308q-54 0 -54 34.5t54 34.5zM174 21q18 0 37.5 -40t19.5 -64.5t-20 -24.5q-15 0 -39.5 32t-24.5 48.5t9 32.5t18 16z" />
    <glyph glyph-name="uni095D" unicode="&#x95d;" horiz-adv-x="593" 
d="M526 481.5q-3 -32.5 -3 -78t-28 -45.5q-10 0 -37.5 25t-56.5 25q-43 0 -147 -88t-104 -138t97 -64q40 71 97 121.5t100.5 50.5t84 -43.5t40.5 -79.5t-38.5 -64.5t-98.5 -43.5t-140 -15q-142 0 -200 71q-27 33 -27 63q0 54 63 128t144 126.5t133 52.5q23 0 51 -18
q2 65 20 109h-368q-55 0 -55 34.5t55 34.5h590q54 0 54 -34.5t-54 -34.5h-159q-1 -7 -5.5 -34.5t-7.5 -60zM445 218q-49 0 -118 -104q70 2 117 18.5t47 45.5q0 12 -14 26t-32 14zM194 21q18 0 37.5 -40t19.5 -64.5t-20 -24.5q-15 0 -39.5 32t-24.5 48.5t9 32.5t18 16z" />
    <glyph glyph-name="uni095E" unicode="&#x95e;" horiz-adv-x="716" 
d="M5 645h780q55 0 55 -34.5t-55 -34.5h-313q-3 -39 -31 -181q122 75 169 75q94 0 94 -110q0 -99 -38.5 -188.5t-97.5 -89.5q-17 0 -36.5 18.5t-19.5 29t3.5 13.5t11.5 4.5t12 2.5q43 7 67 62.5t24 135.5q0 48 -21 48q-39 0 -186 -95q-43 -247 -62 -279q-9 -15 -20.5 -15
t-22.5 11t-11 24.5t29 202.5q-108 -69 -194 -69q-68 0 -68 132.5t47 267.5h-116q-55 0 -55 34.5t55 34.5zM166.5 447q-14.5 -76 -14.5 -135t15 -59q48 0 183 83q16 115 39 240h-185q-23 -53 -37.5 -129zM118 44q18 0 37.5 -40t19.5 -64.5t-20 -24.5q-15 0 -39.5 32
t-24.5 48.5t9 32.5t18 16z" />
    <glyph glyph-name="uni0960" unicode="&#x960;" horiz-adv-x="867" 
d="M659 116q-2 -23 69 -23q30 0 63.5 10t44 10t15.5 -5t4 -13q-1 -24 -43.5 -42t-95.5 -18t-89.5 21.5t-34 56.5t38 52t102.5 31q-37 8 -58.5 27t-20.5 41q1 27 45 46q-17 8 -33 23q-27 -35 -67 -60.5t-67.5 -25.5t-64.5 17q-43 -198 -63 -238q-9 -19 -19.5 -19t-23.5 12.5
t-13 26.5t37 197q-42 -29 -128 -80q-179 -111 -195 -111t-24.5 8t-8.5 16.5t3.5 13.5t10.5 12t15 13t21 15t23.5 16t27.5 17.5t28.5 17.5t31 18.5t33.5 20t46 28.5q80 50 99 60q-73 29 -153 76t-80 69q0 28 25 28q13 0 36 -11q51 -26 70.5 -37t30.5 -17q95 -47 111 -57
q5 27 19.5 101.5t21.5 115.5h-355q-54 0 -54 34.5t54 34.5h826q55 0 55 -34.5t-55 -34.5h-388q-6 -59 -51 -249q26 -13 50 -13t55 25.5t38 49.5q-1 5 -1 18.5t7 26t18 12.5q23 0 38 -25q3 -4 13 -21t17 -25q20 -25 42 -23.5t29.5 11.5t18 10.5t24.5 -13t15 -29t-11.5 -26
t-34.5 -12.5h-5q-22 -2 -43 -11.5t-22 -20.5t11.5 -20t27 -14t27 -14t11.5 -19q-2 -27 -71 -46q-11 -3 -26.5 -7.5t-22.5 -6.5t-14 -5q-13 -5 -13 -13z" />
    <glyph glyph-name="uni0961" unicode="&#x961;" horiz-adv-x="657" 
d="M326 212q-24 0 -22 24q1 11 4 24q10 41 10 63q0 67 -69 67q-56 0 -86.5 -46t-30.5 -113t29 -110t76 -43q31 0 45.5 -6t14.5 -22q0 -40 -72.5 -40t-119 62.5t-46.5 158t50.5 165t142.5 69.5q106 0 118 -98q52 95 156 95h5q5 55 33 114h-462q-54 0 -54 34.5t54 34.5h680
q55 0 55 -34.5t-55 -34.5h-144q-5 -18 -18 -50.5t-19.5 -53t-7.5 -23.5q64 -28 64 -91q0 -33 -32 -58t-64 -41.5t-32 -26.5q0 -15 43.5 -30.5t43.5 -31.5q0 -27 -92 -59q-40 -14 -46 -19q-10 -7 -10 -16q0 -24 71 -24q32 0 62.5 9.5t42.5 9.5q22 0 22 -18q0 -24 -41.5 -42.5
t-95.5 -18.5t-90.5 23t-36.5 58.5t38.5 60.5t96.5 36q-83 16 -83 65q0 22 19.5 39t42.5 26q63 22 63 49q0 18 -18 30t-50.5 12t-59.5 -18.5t-41 -44.5t-25 -52q-26 -64 -59 -64z" />
    <glyph glyph-name="uni0962" unicode="&#x962;" horiz-adv-x="0" 
d="M-244 -292q0 -31 -51.5 -31t-83.5 40.5t-32 105.5t34 112t101 47t73 -66q37 65 104 65q44 0 69 -21t25 -53t-19.5 -57.5t-43.5 -39.5q-63 -35 -63 -63q0 -26 41 -26q18 0 38.5 8t30.5 8q21 0 21 -18q0 -20 -28 -34t-69 -14t-66 18.5t-25 49t19 53.5t41 35t41 30t19 38
q0 30 -37 30q-26 0 -45 -18t-28 -39q-24 -57 -55 -57q-17 0 -19 16q0 15 2.5 33t2.5 26q3 39 -32 39t-53 -29.5t-18 -71.5t17.5 -67.5t53 -25.5t35.5 -23z" />
    <glyph glyph-name="uni0963" unicode="&#x963;" horiz-adv-x="0" 
d="M-99 -19q42 0 67 -19t25 -43t-13.5 -38t-29.5 -19q-43 -15 -43 -24.5t28 -18.5t28 -19q0 -12 -10.5 -17.5t-15 -7.5t-17.5 -6t-16 -5q-37 -12 -37 -29.5t39 -19.5q21 0 43 6.5t29 6.5q16 0 16 -16.5t-26 -28t-65.5 -11.5t-62.5 17t-23 44q0 52 90 65q-55 8 -55 40
q0 24 39 35.5t39 30.5q0 21 -30.5 21t-49.5 -18t-28 -39q-24 -57 -55 -57q-17 0 -19 16q0 15 2.5 33t2.5 26q3 39 -32 39t-53 -29.5t-18 -71.5t17.5 -67.5t53 -25.5t35.5 -23q0 -31 -51.5 -31t-83.5 40.5t-32 105.5t34 112t101 47t73 -66q37 65 104 65z" />
    <glyph glyph-name="uni0964" unicode="&#x964;" horiz-adv-x="325" 
d="M150.5 -2.5q-14.5 16.5 -14.5 30t9.5 55.5t26.5 115t27 123q48 246 58 360q1 19 16 19q17 0 38.5 -19.5t21.5 -32.5q0 -35 -20 -143.5t-32.5 -161t-27 -115t-22.5 -95t-19 -73.5q-22 -79 -34.5 -79t-27 16.5z" />
    <glyph glyph-name="uni0965" unicode="&#x965;" horiz-adv-x="592" 
d="M416.5 -8.5q-5.5 -10.5 -14 -10.5t-23 16.5t-14.5 30t9.5 56t25.5 114.5q70 305 86 483q1 19 16 19q17 0 38.5 -19.5t21.5 -32.5q0 -35 -20 -143.5t-32.5 -159.5t-22 -91.5t-15.5 -67.5t-14.5 -62t-15 -57.5t-13.5 -43.5t-12.5 -31.5zM124.5 -2.5q-14.5 16.5 -14.5 30
t9.5 55.5t26.5 115t27 123q48 246 58 360q1 19 16 19q17 0 38.5 -19.5t21.5 -32.5q0 -35 -20 -143.5t-32.5 -161t-27 -115t-22.5 -95t-19 -73.5q-22 -79 -34.5 -79t-27 16.5z" />
    <glyph glyph-name="uni0966" unicode="&#x966;" horiz-adv-x="436" 
d="M297.5 223.5q42.5 66.5 42.5 115.5t-22.5 100.5t-46.5 51.5q-31 0 -70.5 -79t-39.5 -162q0 -38 16 -65.5t43 -27.5q35 0 77.5 66.5zM129.5 139.5q-36.5 47.5 -36.5 113t26.5 139t69.5 121t89 47.5t88 -66.5t42 -124.5q0 -104 -59 -190.5t-131 -86.5q-52 0 -88.5 47.5z
" />
    <glyph glyph-name="uni0967" unicode="&#x967;" horiz-adv-x="456" 
d="M321 115q18 0 18 -21t-37.5 -41t-75.5 -20t-65 21t-27 48t22.5 64t60 90t57.5 93q-69 2 -126.5 32.5t-57.5 71.5q0 61 55 121.5t127 60.5q57 0 85 -43t28 -103t-27 -126.5t-59 -112t-59 -85t-27 -51.5q0 -15 21.5 -15t50 8t36.5 8zM277 403l19 -1q16 46 16 90
q0 73 -46 73q-30 0 -65 -37t-35 -60.5t38 -43.5t73 -21z" />
    <glyph glyph-name="uni0968" unicode="&#x968;" horiz-adv-x="529" 
d="M172 206q-45 0 -78.5 20t-33.5 52.5t40 32.5t87 -34q93 9 158.5 75t65.5 143q0 33 -16.5 53t-54.5 20q-44 0 -73 -47q-19 -31 -33.5 -31t-34.5 16.5t-20 32.5q0 33 52 70t116 37t103.5 -42.5t39.5 -111.5q0 -90 -69 -168.5t-167 -105.5q51 -54 92.5 -117.5t41.5 -81.5
q0 -24 -25 -24q-16 0 -43 30.5t-70 89t-72 91.5h-6z" />
    <glyph glyph-name="uni0969" unicode="&#x969;" horiz-adv-x="489" 
d="M176 107q70 0 126 30.5t56 80.5t-64 70q-38 -16 -75 -16q-17 0 -38 17.5t-21 32.5q0 35 77 35q24 0 44 -4q47 27 78 65t31 77q0 64 -56 64q-33 0 -48.5 -20t-15.5 -41.5t-6 -25.5q-12 -7 -20.5 -7t-24 19t-15.5 30q0 47 37 83t96.5 36t90.5 -37.5t31 -89.5t-27.5 -98
t-71.5 -81q74 -40 74 -110t-59.5 -117t-150.5 -59q42 -54 71.5 -107.5t29.5 -74.5t-19 -21q-13 0 -35 27.5t-60 84t-63 88.5q-50 6 -82.5 36t-32.5 58q0 34 32 34q40 0 101 -59h10z" />
    <glyph glyph-name="uni096A" unicode="&#x96a;" horiz-adv-x="546" 
d="M73 626q0 18 26 18q47 0 101.5 -39t104.5 -103q63 58 124 95.5t92 37.5t31 -16q0 -9 -28.5 -33t-82.5 -67.5t-92 -79.5q89 -141 89 -257q0 -57 -35.5 -89t-100.5 -32t-118.5 52t-53.5 109q0 93 121 225l-19 25q-29 38 -70 72t-65 52.5t-24 29.5zM300 130q63 0 63 58
q0 88 -68 196q-88 -97 -88 -175q0 -33 31.5 -56t61.5 -23z" />
    <glyph glyph-name="uni096B" unicode="&#x96b;" horiz-adv-x="484" 
d="M261 207q-78 0 -121 40t-43 102.5t49.5 133.5t110.5 116.5t99 45.5q17 0 37 -14t20 -26q0 -7 -19 -15q-85 -38 -152 -110t-67 -130q0 -70 92 -70q17 0 26 1q42 89 99 89q23 0 41 -13t18 -31q0 -32 -29.5 -61t-76.5 -44q-13 -31 -27.5 -77t-24.5 -73.5t-26 -56.5
q-31 -55 -99 -55q-44 0 -85 28.5t-41 58.5q0 19 15 19q8 0 44.5 -22t64.5 -22q20 0 31.5 16.5t17.5 27.5t13.5 31t11.5 34q9 25 25 77h-4z" />
    <glyph glyph-name="uni096C" unicode="&#x96c;" horiz-adv-x="491" 
d="M456.5 283.5q13.5 -16.5 13.5 -41.5t-31 -52t-80 -47q-22 -43 -39.5 -105t-20.5 -72.5t-8 -22.5q-9 -21 -23 -21q-25 0 -25 53t36 145q-32 -5 -56 -5q-111 0 -111 82q0 39 27.5 85.5t68.5 84.5q-39 5 -63.5 25t-24.5 56q0 63 72.5 130t152.5 67q60 0 60 -42
q0 -15 -6.5 -29.5t-13.5 -14.5t-16.5 9.5t-21.5 9.5q-42 0 -97.5 -42.5t-55.5 -81.5q0 -28 45 -28q23 0 53 4.5t45 4.5t19.5 -8t4.5 -13q0 -14 -41 -41q-1 -2 -2.5 -2.5t-2.5 -1.5q-52 -38 -90.5 -83.5t-38.5 -81.5q0 -19 32 -19q50 0 97 11q56 104 110 104q18 0 31.5 -16.5
z" />
    <glyph glyph-name="uni096D" unicode="&#x96d;" horiz-adv-x="614" 
d="M350.5 472.5q49.5 62.5 113 62.5t100.5 -51t37 -115t-31 -118t-78.5 -94t-107 -65t-113.5 -25q-76 0 -125.5 72t-49.5 182q0 70 23.5 141.5t53 113t50 41.5t33.5 -8.5t13 -21.5t-15.5 -36t-34 -50t-34 -78t-15.5 -117.5t29 -116.5t76 -50q66 0 135.5 42t102.5 102
q-45 -16 -91 -16q-121 0 -121 81q0 62 49.5 124.5zM371 356q0 -27 57 -27t105 30q-1 50 -17 78t-47.5 28t-64.5 -38t-33 -71z" />
    <glyph glyph-name="uni096E" unicode="&#x96e;" horiz-adv-x="491" 
d="M396.5 111.5q-68.5 -33.5 -148 -33.5t-127.5 35.5t-48 101t34.5 138t79.5 127t86.5 92t56.5 37.5t31.5 -13t16.5 -22.5t-35 -46t-77 -80.5t-77 -106.5t-35 -117.5q0 -70 101 -70q86 0 157 37q23 13 31 13q22 0 22 -21q0 -37 -68.5 -70.5z" />
    <glyph glyph-name="uni096F" unicode="&#x96f;" horiz-adv-x="465" 
d="M425.5 605q34.5 -28 34.5 -86t-73 -103t-148 -49q7 -18 55 -101t48 -132.5t-41.5 -83t-100 -33.5t-102 25.5t-43.5 52.5t12 27q8 0 23 -10q44 -31 91.5 -31t69 16.5t21.5 40t-19.5 60.5t-43.5 73.5t-43.5 84.5t-19.5 88q0 74 49.5 131.5t133.5 57.5q62 0 96.5 -28z
M388 523q0 39 -50 39t-83 -36.5t-33 -84.5q0 -9 1 -13q57 0 111 30t54 65z" />
    <glyph glyph-name="uni0970" unicode="&#x970;" horiz-adv-x="302" 
d="M170 257q10 14 10 33t-7.5 29.5t-19.5 10.5t-22.5 -14.5t-10.5 -32.5t7.5 -29t20 -11t22.5 14zM84.5 215.5q-22.5 25.5 -22.5 64t29.5 72t66.5 33.5t59.5 -25t22.5 -63.5t-29.5 -72.5t-66.5 -34t-59.5 25.5z" />
    <glyph glyph-name="uni0972" unicode="&#x972;" horiz-adv-x="748" 
d="M613 884l-3 -19q0 -41 41 -69t96 -28t84.5 8.5t43 21.5t21.5 28t10 28q5 30 18 30t29.5 -14t16.5 -26q0 -48 -56 -92.5t-148 -44.5t-160 47t-68 129q0 33 24 33q16 0 33.5 -11t17.5 -21zM583 645h279q54 0 54 -34.5t-54 -34.5h-110q-2 -13 -31 -142t-38 -170
q-31 -140 -40 -168t-17 -49q-14 -40 -27 -40t-27.5 12.5t-14.5 23.5q0 29 58 285l5 21q-99 -35 -214 -53q36 -36 36 -86q0 -79 -62 -127.5t-157.5 -48.5t-151.5 47.5t-56 111.5q0 26 11 42t27 16t23.5 -10.5t7.5 -23.5q0 -112 136 -112q64 0 103 28.5t39 76.5t-44 70
q-44 -21 -83 -21q-21 0 -42.5 22.5t-21.5 39.5q0 32 75 32q28 0 65 -7q43 29 69.5 68t26.5 79q0 60 -62 60q-25 0 -54.5 -13t-36.5 -29q-3 -7 -8 -19.5t-12 -21t-19 -8.5t-25 15t-13 29q0 45 54.5 83.5t115 38.5t94.5 -34.5t34 -99t-56 -132.5q135 32 219 80q16 80 28 134
h-83q-54 0 -54 34.5t54 34.5z" />
    <glyph glyph-name="uni200B" unicode="&#x200b;" horiz-adv-x="0" 
 />
    <glyph glyph-name="uni200C" unicode="&#x200c;" horiz-adv-x="0" 
d="M24 -230h-47v1041h47v-1041z" />
    <glyph glyph-name="uni200D" unicode="&#x200d;" horiz-adv-x="0" 
d="M24 -230h-47v865l-69 -73l-33 33l93 93l-95 95l33 33l95 -95l96 95l32 -32l-96 -96l96 -95l-33 -33l-72 75v-865z" />
    <glyph glyph-name="endash" unicode="&#x2013;" horiz-adv-x="610" 
d="M511 373q61 0 61 -25q1 -20 -92 -39q-32 -7 -88.5 -16t-83 -13.5t-75 -14.5t-79.5 -16.5t-44 -6.5t-28 16t-15 32q0 22 165 52.5t279 30.5z" />
    <glyph glyph-name="emdash" unicode="&#x2014;" horiz-adv-x="917" 
d="M67 292q0 33 229 53.5t494 20.5q99 0 99 -28q0 -22 -104 -32q-64 -6 -194 -14t-198.5 -14.5t-171 -20.5t-116 -14.5t-26 16t-12.5 33.5z" />
    <glyph glyph-name="quoteleft" unicode="&#x2018;" horiz-adv-x="287" 
d="M56 654q0 63 57.5 127t95.5 64q28 0 28 -22q0 -13 -23 -35t-46 -51t-23 -54t9 -37t20 -16q28 -11 28 -30.5t-15.5 -33t-36.5 -13.5q-39 0 -66.5 27.5t-27.5 73.5z" />
    <glyph glyph-name="quoteright" unicode="&#x2019;" horiz-adv-x="286" 
d="M231 744q0 -63 -58 -127t-95 -64q-27 0 -27 22q0 12 22.5 34t45.5 51t23 54t-9 37t-19 17q-29 12 -29 31t15.5 32.5t36.5 13.5q39 0 66.5 -27.5t27.5 -73.5z" />
    <glyph glyph-name="quotesinglbase" unicode="&#x201a;" horiz-adv-x="291" 
d="M191 26q0 -63 -54 -132.5t-92 -69.5q-20 0 -20 14q0 11 21 36q63 75 63 125q0 16 -13 26.5t-26 19.5t-13 22.5t17.5 34t42.5 20.5t49.5 -29.5t24.5 -66.5z" />
    <glyph glyph-name="quotedblleft" unicode="&#x201c;" horiz-adv-x="491" 
d="M269 654q0 61 50 123t94 62q27 0 27 -23q0 -19 -38 -58q-14 -15 -25.5 -37t-11.5 -45.5t16.5 -45t16.5 -37t-12.5 -28t-31.5 -12.5q-36 0 -60.5 28.5t-24.5 72.5zM56 654q0 63 54.5 127t91.5 64q27 0 27 -23q0 -12 -19.5 -34.5t-39 -52t-19.5 -57.5t17 -49t17 -36
t-12.5 -27.5t-32.5 -12.5q-36 0 -60 28.5t-24 72.5z" />
    <glyph glyph-name="quotedblright" unicode="&#x201d;" horiz-adv-x="487" 
d="M222 744q0 -61 -50 -123t-94 -62q-27 0 -27 23q0 12 18.5 34t37.5 49.5t19 54t-16.5 48t-16.5 37t12.5 28t31.5 12.5q36 0 60.5 -28.5t24.5 -72.5zM432 744q0 -63 -55 -127t-92 -64q-27 0 -27 23q0 12 19.5 34.5t39 52t19.5 57.5t-17 49t-17 36t12.5 27.5t32.5 12.5
q36 0 60.5 -28.5t24.5 -72.5z" />
    <glyph glyph-name="quotedblbase" unicode="&#x201e;" horiz-adv-x="485" 
d="M395 26q0 -63 -54 -132.5t-93 -69.5q-20 0 -20 14q0 11 21 36q63 75 63 125q0 16 -13 26.5t-25.5 19.5t-12.5 22.5t17 34t36 20.5q32 0 56.5 -29.5t24.5 -66.5zM181 26q0 -63 -54 -132.5t-93 -69.5q-20 0 -20 14q0 11 21 36q63 75 63 125q0 16 -13 26.5t-25.5 19.5
t-12.5 22.5t17 34t36 20.5q32 0 56.5 -29.5t24.5 -66.5z" />
    <glyph glyph-name="dagger" unicode="&#x2020;" horiz-adv-x="403" 
d="M417 423q0 -15 -48 -23.5t-152 -16.5q-22 -142 -58.5 -328t-47.5 -215t-16 -29q-14 0 -33 21.5t-19 38.5t13.5 94.5t36 200.5t35.5 210q-114 -11 -128 -11t-28 19t-14 33q0 26 181 36q15 112 15 170q0 30 22 30q17 0 39.5 -29t22.5 -56.5t-11 -110.5h38q152 0 152 -34z
" />
    <glyph glyph-name="daggerdbl" unicode="&#x2021;" horiz-adv-x="403" 
d="M255 457q152 0 152 -34q0 -15 -47.5 -23t-151.5 -17q-23 -149 -48 -270q78 5 120 5q82 0 82 -26q0 -17 -50.5 -29t-165.5 -25q-46 -227 -60.5 -227t-33 21.5t-18.5 42.5t25 154q-108 -11 -126 -11t-32 19t-14 33q0 20 186 37q37 206 46 269q-114 -11 -128.5 -11t-28 19
t-13.5 33q0 26 181 36q15 112 15 149t4.5 44t19 7t37.5 -29t23 -56.5t-11 -110.5h37z" />
    <glyph glyph-name="bullet" unicode="&#x2022;" horiz-adv-x="237" 
d="M160 239q-32 0 -71 39.5t-39 66.5t21.5 53.5t44 26.5t53 -60.5t30.5 -91.5q0 -9 -13.5 -21.5t-25.5 -12.5z" />
    <glyph glyph-name="ellipsis" unicode="&#x2026;" horiz-adv-x="666" 
d="M589 -6q-25 0 -57 32.5t-32 54t18 43t36.5 21.5t42.5 -49t24 -74q0 -8 -10.5 -18t-21.5 -10zM366 -6q-25 0 -56.5 32.5t-31.5 54.5t17 43t36 21t43 -49t24 -74q0 -8 -10.5 -18t-21.5 -10zM145 -6q-25 0 -57 32.5t-32 54t17.5 43t36 21.5t43 -49t24.5 -74q0 -8 -11 -18
t-21 -10z" />
    <glyph glyph-name="perthousand" unicode="&#x2030;" horiz-adv-x="1195" 
d="M1028 403q48 0 80 -50t32 -113q0 -86 -61 -158t-131 -72q-42 0 -73.5 43.5t-31.5 96.5q0 93 58.5 173t126.5 80zM963 89q29 0 64 45.5t35 92t-12 72.5t-28 26q-29 0 -64 -55.5t-35 -112.5q0 -28 10.5 -48t29.5 -20zM697 403q48 0 80.5 -50.5t32.5 -112.5q0 -86 -61 -158
t-131 -72q-42 0 -73.5 43.5t-31.5 96.5q0 93 58.5 173t125.5 80zM633 89q29 0 64 45.5t35 92t-12.5 72.5t-28.5 26q-29 0 -64 -55.5t-35 -112.5q0 -28 11 -48t30 -20zM628.5 732q50.5 28 62 28t27.5 -27t13.5 -49t-35 -71t-107.5 -149.5t-182 -252.5t-137 -189t-40.5 -35.5
t-21 17t-9.5 27.5t20 43t61.5 92.5t83.5 119.5q82 116 244 347q-96 -57 -186 -50q-11 0 -35 6q7 -31 7 -55q0 -86 -61 -158.5t-131 -72.5q-43 0 -74.5 43.5t-31.5 96.5q0 93 58.5 173t126.5 80q23 0 44 -12q42 -26 82.5 -29t105.5 23t115.5 54zM216 382q29 0 64.5 45.5
t35.5 92t-12.5 72.5t-28.5 26q-29 0 -64 -55.5t-35 -112.5q0 -27 11 -47.5t29 -20.5z" />
    <glyph glyph-name="guilsinglleft" unicode="&#x2039;" horiz-adv-x="578" 
d="M399 497q18 0 34.5 -11t16.5 -22q0 -16 -35 -26q-88 -28 -167.5 -64.5t-79.5 -55.5q0 -17 62 -47t124.5 -58.5t62.5 -40.5q0 -21 -42 -21t-166 61.5t-124 97.5q0 14 11.5 35t22.5 29q42 34 141.5 78.5t138.5 44.5z" />
    <glyph glyph-name="guilsinglright" unicode="&#x203a;" horiz-adv-x="591" 
d="M174 461q0 10 15 23t27 13q50 -1 156 -64.5t106 -108.5q0 -30 -21 -48q-43 -35 -149.5 -80.5t-143.5 -45.5t-37 15.5t135.5 78t135.5 79.5q0 21 -61 57.5t-124 54.5q-39 12 -39 26z" />
    <glyph glyph-name="fraction" unicode="&#x2044;" horiz-adv-x="783" 
d="M599.5 734.5q13.5 -23.5 13.5 -42.5t-34.5 -70t-116 -157.5t-117.5 -156.5q-145 -206 -188 -264t-55 -58q-9 0 -21 14.5t-12 29.5t52.5 93.5t189.5 272.5t187 267t53 77t4 5.5l3 4.5q9 8 15 8q13 0 26.5 -23.5z" />
    <glyph glyph-name="uni20A8" unicode="&#x20a8;" horiz-adv-x="981" 
d="M872 511q34 0 64 -37.5t30 -65.5q0 -17 -16 -17q-11 0 -34 17.5t-47 17.5t-75.5 -28t-51.5 -59q0 -14 29 -36t63 -43.5t63 -56t29 -74t-54.5 -77t-127 -37.5t-128 35t-55.5 66q0 13 6.5 20.5t16.5 7.5t28 -13q54 -39 112.5 -39t84.5 13.5t26 36t-29 48t-63.5 45.5
t-63.5 49t-29 59q0 53 83.5 110.5t138.5 57.5zM100 16q-15 0 -34 22t-19 44.5t55 216.5t63 295q-13 8 -23 25t-10 30q0 23 68 47.5t150.5 24.5t143 -39.5t60.5 -111.5q0 -49 -27.5 -91.5t-67 -69.5t-78.5 -48t-66.5 -34.5t-27.5 -19.5q0 -22 34.5 -57t48.5 -48t37 -34.5
t43.5 -38.5t33 -28t25.5 -23q25 -23 25 -37q0 -24 -33 -24q-60 0 -171 104.5t-136 177.5q-47 -156 -54 -180.5t-16 -50.5q-16 -52 -24 -52zM463 570q0 62 -108 62q-49 0 -114 -25q10 -22 10 -40q0 -65 -42 -215q17 13 65 38.5t86.5 47t70.5 57.5t32 75z" />
    <glyph glyph-name="Euro" unicode="&#x20ac;" horiz-adv-x="553" 
d="M220 130q28 -28 80.5 -28t104 17.5t86 35t47.5 17.5q17 0 17 -22t-41.5 -54t-104.5 -56.5t-114 -24.5q-86 0 -138 50.5t-57 128.5q-22 -3 -39.5 -3t-31.5 20t-14 34t92 29q10 45 25 83q-24 -2 -36.5 -2t-26.5 20.5t-14 35.5q0 21 119 32q59 101 143 167.5t169 66.5
q28 0 53.5 -29t25.5 -56q0 -13 -7 -23.5t-14 -10.5t-24.5 15t-33.5 15q-43 0 -99.5 -38.5t-105.5 -99.5q59 3 95 3q148 0 148 -36q0 -18 -66 -27q-66 -10 -232 -22q-22 -40 -33 -81q150 19 227.5 19t77.5 -25q0 -20 -68 -35t-225 -37l-19 -3q6 -48 34 -76z" />
    <glyph glyph-name="uni20B9" unicode="&#x20b9;" horiz-adv-x="755" 
d="M161 645h597q54 0 54 -34.5t-54 -34.5h-207q30 -39 30 -91q0 -12 -1 -18h144q55 0 55 -34.5t-55 -34.5h-158q-29 -80 -100.5 -133.5t-159.5 -57.5q38 -58 86.5 -120.5t67 -88.5t18.5 -35q0 -24 -25 -24q-32 0 -158 164q-108 144 -108 180q0 14 6.5 25t17 11t36.5 -21
t46 -21q61 0 112.5 33.5t77.5 87.5h-356q-54 0 -54 34.5t54 34.5h374q1 6 1 17q0 38 -22 65t-69 27h-250q-54 0 -54 34.5t54 34.5z" />
    <glyph glyph-name="uni20BA" unicode="&#x20ba;" horiz-adv-x="529" 
d="M169 470q-45 -5 -61 -5t-30 19t-14 34q0 21 122 30q20 100 20 128.5t4.5 35t18.5 6.5t36 -31t22 -56t-11 -77q70 2 87 2q121 0 121 -32q0 -29 -224 -46q-18 -77 -19 -79q95 10 136 10q80 0 80 -25q0 -19 -52.5 -32.5t-182.5 -31.5q-23 -96 -24 -99q-12 -47 16.5 -79.5
t73.5 -32.5t82 27.5t58 60t38.5 60t23.5 27.5t10.5 -7.5t4.5 -17.5q0 -42 -28.5 -97t-80.5 -98t-106 -43q-25 0 -59 18.5t-63.5 47t-46 69t-6.5 79.5l17 72q-44 -6 -62 -6t-32 18.5t-14 32.5q0 17 127 35q12 56 18 83z" />
    <glyph glyph-name="uni20BD" unicode="&#x20bd;" horiz-adv-x="564" 
d="M199 249q84 13 117.5 13t43 -0.5t21.5 -1.5q21 -3 21 -17.5t-56 -35.5t-108 -29.5t-63 -10.5q-47 -152 -59 -152q-14 0 -33 22.5t-19 43t16 76.5h-19q-13 0 -29 16t-16 30q0 11 85 30l20 67h-9q-13 0 -32 18.5t-19 30.5t81 26q41 160 45 244q-24 22 -24 40q0 25 68 48
t130 23q91 0 160 -66t69 -147q0 -41 -36 -77t-94 -61q-113 -48 -244 -69zM466 612q-31 33 -68.5 33t-132.5 -30q9 -18 9 -38q0 -53 -36 -186q127 22 193 60.5t66 83t-31 77.5z" />
    <glyph glyph-name="uni2113" unicode="&#x2113;" horiz-adv-x="345" 
d="M317 156q19 0 19 -16q0 -28 -68 -76.5t-120 -48.5q-29 0 -46 17.5t-17 44t12.5 72.5t33.5 119.5t34 135.5q-33 -32 -71 -56t-61 -24t-23 20t62 60q24 16 52.5 44t43.5 58q36 72 38 235q0 50 34 50q20 0 34.5 -23t14.5 -61q0 -228 -115 -615q31 9 81.5 36.5t61.5 27.5z
" />
    <glyph glyph-name="trademark" unicode="&#x2122;" horiz-adv-x="736" 
d="M603.5 651q9.5 7 17.5 7t20 -8.5t12 -19.5t-22 -81.5t-27.5 -90.5t-8.5 -31.5t-7 -22.5q-6 -20 -13.5 -20t-16 10t-8.5 27t10.5 63.5t24.5 82.5q-13 -14 -32 -34.5t-29 -31t-22 -21.5q-22 -22 -38 -22t-29 16t-37 70q-26 -73 -32.5 -96.5t-9.5 -32t-5 -13.5l-4 -10
q-4 -8 -9 -8t-16 12.5t-11 22.5t28 107t28 123q0 13 14 13q8 0 23.5 -11.5t16.5 -20.5q3 -31 49 -119q18 19 42 45.5t38 41.5t29 30.5t24.5 22.5zM152 615l-72 -3q-10 0 -20 13t-10 23q0 8 30.5 10t102 2t100 -11t28.5 -26q0 -10 -32 -10q-4 0 -74 2q-5 -36 -34 -131
q-28 -100 -38 -100q-7 0 -18 10t-11 19.5t21.5 86.5t26.5 115z" />
    <glyph glyph-name="Omega" unicode="&#x2126;" horiz-adv-x="1057" 
d="M632 87v2q0 5 2.5 8.5t17.5 32t26 52t21.5 62.5t10.5 91t-17.5 92.5t-53.5 40.5q-59 0 -137.5 -46t-135.5 -110.5t-57 -113.5q0 -25 18.5 -42.5t40.5 -24.5q58 -19 58 -38q0 -6 -4 -11q-11 -28 -122 -44t-168 -16t-71 4t-14 17t20.5 35.5t38.5 22.5q94 0 159 5
q-48 45 -48 93q0 70 66 154.5t162.5 142.5t182 58t129.5 -61t44 -150q0 -121 -53 -218q84 9 147 21t77.5 12t31 -14.5t16.5 -32.5q0 -23 -123.5 -38t-213.5 -15q-18 0 -34.5 9t-16.5 20z" />
    <glyph glyph-name="estimated" unicode="&#x212e;" horiz-adv-x="809" 
d="M222 415h358v169q-61 75 -178 75t-180 -85v-159zM700 175q-129 -137 -281.5 -137t-244.5 86.5t-92 241.5t85.5 256t235.5 101t237 -93t87 -221v-59h-505v-163q72 -84 191 -84q69 0 126.5 30t117.5 89z" />
    <glyph glyph-name="partialdiff" unicode="&#x2202;" horiz-adv-x="452" 
d="M223 713q76 0 138 -95.5t62 -218.5q0 -94 -35.5 -182.5t-98 -145t-134.5 -56.5q-51 0 -87.5 45t-36.5 117q0 117 67.5 203.5t158.5 86.5q38 0 75 -35q-11 127 -77 190q-23 21 -36 21t-29.5 -7.5t-25.5 -7.5q-18 0 -18 22.5t25 42.5t52 20zM162 86q54 0 109 90.5t62 188.5
q-30 37 -59 37q-55 0 -105 -67t-50 -166q0 -31 12.5 -57t30.5 -26z" />
    <glyph glyph-name="Delta" unicode="&#x2206;" horiz-adv-x="707" 
d="M467 139q-92 357 -109 411q-118 -182 -218 -466q196 15 327 55zM144 15q-43 0 -70.5 15.5t-27.5 41t57.5 167.5t131 278t108.5 136q21 0 45.5 -12t34 -23t16.5 -29.5t16 -52.5t16 -63t19.5 -83.5t19.5 -81t18 -68.5t15 -58q12 -50 12 -80q0 -34 -144.5 -60.5
t-266.5 -26.5z" />
    <glyph glyph-name="product" unicode="&#x220f;" horiz-adv-x="566" 
d="M138 631q0 30 53.5 40t160.5 10t149.5 -19t42.5 -80t-56 -348t-84 -287q-12 0 -29.5 21.5t-17.5 38t48 266t53 336.5q-139 -4 -236 -22q-16 -154 -66.5 -397t-73.5 -243q-12 0 -29.5 21.5t-17.5 38.5t51.5 279t51.5 345z" />
    <glyph glyph-name="summation" unicode="&#x2211;" horiz-adv-x="718" 
d="M208 -50q-71 0 -113.5 38t-40.5 95q1 39 64 74.5t138 56.5q198 58 198 89q1 13 -24.5 22t-87.5 22q-130 28 -169 65q-11 10 -15.5 41t1.5 52.5t67.5 44.5t135.5 39t154 41t115 51q18 -1 27.5 -14t9 -29.5t-11.5 -35.5t-28 -28q-40 -21 -133 -41t-161.5 -36t-68.5 -32.5
t57.5 -30.5t128 -33t92.5 -46q14 -16 13.5 -48.5t-14.5 -44.5q-57 -51 -154.5 -88.5t-163 -58.5t-65.5 -39.5t15 -29.5t40 -11q222 -2 400 49q22 6 39 -9.5t16 -33.5t-14.5 -31.5t-34.5 -19.5q-139 -40 -412 -40z" />
    <glyph glyph-name="minus" unicode="&#x2212;" horiz-adv-x="600" 
d="M591 362q0 -36 -169 -59t-320 -23q-24 0 -43 20t-19 41t27 21q95 0 145.5 1t169.5 11t140 10q69 0 69 -22z" />
    <glyph glyph-name="uni2215" unicode="&#x2215;" horiz-adv-x="783" 
d="M599.5 734.5q13.5 -23.5 13.5 -42.5t-34.5 -70t-116 -157.5t-117.5 -156.5q-145 -206 -188 -264t-55 -58q-9 0 -21 14.5t-12 29.5t52.5 93.5t189.5 272.5t187 267t53 77t4 5.5l3 4.5q9 8 15 8q13 0 26.5 -23.5z" />
    <glyph glyph-name="uni2219" unicode="&#x2219;" horiz-adv-x="237" 
d="M145 246q-25 0 -57 32t-32 54t17.5 43t36 21t43 -49t24.5 -74q0 -8 -11 -17.5t-21 -9.5z" />
    <glyph glyph-name="radical" unicode="&#x221a;" horiz-adv-x="509" 
d="M570 596q35 60 52 60t33 -11t16 -24t-27.5 -72t-75.5 -160.5t-70 -155t-36 -88.5t-23.5 -57.5t-21 -51t-19.5 -46.5t-18 -38t-17.5 -32t-16.5 -22q-15 -20 -30 -20t-35.5 16t-27.5 34q-21 52 -44 151.5t-33 179.5q-17 -9 -50 -45t-49.5 -36t-16.5 19q0 39 44.5 91.5
t85.5 53.5q20 0 40.5 -15t26 -34t19.5 -132t35 -181q188 492 259 616z" />
    <glyph glyph-name="infinity" unicode="&#x221e;" horiz-adv-x="752" 
d="M728 357q0 -98 -59.5 -186t-135.5 -88q-103 0 -171 118q-139 -115 -201 -115q-47 0 -88 33t-41 78.5t24.5 107t72 112.5t103.5 51t93.5 -47.5t51.5 -105.5q126 111 169.5 138.5t68.5 27.5q43 0 78 -38t35 -86zM155 169q52 0 175 105q-4 7 -16.5 31.5t-20.5 37t-23.5 24.5
t-34.5 12q-41 0 -77.5 -70t-36.5 -109q0 -31 34 -31zM521 162q49 0 84.5 64t35.5 130q0 16 -8 26t-17 10t-16.5 -2.5t-17 -8t-18 -11t-22.5 -16.5q-42 -33 -62.5 -51t-39.5 -34.5t-28 -24.5q48 -82 109 -82z" />
    <glyph glyph-name="integral" unicode="&#x222b;" horiz-adv-x="484" 
d="M364.5 770q21.5 12 52.5 12t61 -27.5t30 -56.5t-16 -29q-4 0 -21.5 19t-39.5 19q-27 0 -50.5 -73t-62 -249.5t-56.5 -248.5t-36.5 -128.5t-37.5 -83.5q-39 -52 -96 -52q-30 0 -60 27t-30 56t15 29q4 0 23.5 -18.5t39.5 -18.5q26 0 42 50q24 71 67.5 266t61.5 263.5
t36.5 126t37 81.5t40 36z" />
    <glyph glyph-name="approxequal" unicode="&#x2248;" horiz-adv-x="589" 
d="M265 555q28 0 51 -17t37 -38q37 -56 73 -61q20 3 36.5 19t25.5 34q26 46 50.5 46t24.5 -41.5t-42 -90t-92 -48.5q-75 0 -155 127q-28 -12 -49.5 -33.5t-32.5 -39.5q-26 -46 -51 -46q-35 0 -35 32q1 49 54 103t105 54zM211 325q28 0 51 -17t37 -38q38 -57 73 -62
q20 3 36.5 19t25.5 33q26 47 50.5 47t24.5 -41.5t-42 -90t-92 -48.5q-75 0 -155 128q-28 -12 -49.5 -33.5t-32.5 -39.5q-26 -46 -51 -46q-35 0 -35 31q1 49 54 103.5t105 54.5z" />
    <glyph glyph-name="notequal" unicode="&#x2260;" horiz-adv-x="593" 
d="M205 55q-10 0 -17 7.5t-7 17.5q0 24 42 120q-93 -7 -128 -7q-13 1 -24.5 20.5t-11.5 33.5q0 17 199 36l48 114q-150 -14 -178 -14q-13 0 -26 19.5t-13 33.5q1 26 253 46q36 80 59.5 116t43.5 36q23 0 23 -26q0 -15 -17 -63l-25 -57q54 2 60 2q111 0 111 -32
q0 -15 -33 -23t-80.5 -15t-51.5 -8l-41 -5q-34 -80 -51 -117q125 10 157 10q74 -2 74 -27q-1 -18 -49 -30.5t-118.5 -22t-83 -11t-19.5 -2.5q-71 -152 -96 -152z" />
    <glyph glyph-name="lessequal" unicode="&#x2264;" horiz-adv-x="523" 
d="M437.5 81q-16.5 -6 -38.5 -6q-93 0 -231.5 37.5t-138.5 57.5q0 16 14 31.5t25.5 15.5t31.5 -7q120 -39 205 -60.5t107 -27.5q42 -13 42 -24t-16.5 -17zM463 560q21 0 35 -16.5t14 -29.5q0 -18 -27.5 -25.5t-81.5 -20.5t-87 -21.5t-72 -20.5q-79 -22 -79 -40
q0 -10 75 -35.5t150 -53.5t75 -43q0 -24 -41 -24q-62 0 -209.5 53t-147.5 94q0 15 12 37t26 32q45 34 172 74t186 40z" />
    <glyph glyph-name="greaterequal" unicode="&#x2265;" horiz-adv-x="563" 
d="M113 71q-22 0 -38.5 6.5t-16.5 15.5q0 16 80 39q19 5 57 15.5t71.5 20t76.5 23.5q80 26 93 26t26.5 -15t13.5 -31q0 -20 -144.5 -60t-218.5 -40zM136 544q0 16 22 16q92 -1 202 -42t139 -81q7 -10 8.5 -31t-4.5 -33q-21 -37 -178 -92.5t-209 -55.5q-31 0 -31 19.5
t84.5 52t169.5 62t85 41.5q0 20 -89.5 48.5t-153.5 36.5q-15 2 -30 24t-15 35z" />
    <glyph glyph-name="lozenge" unicode="&#x25ca;" horiz-adv-x="422" 
d="M214 150q73 76 121 195q-24 42 -69 155q-77 -78 -112 -182q25 -59 60 -168zM118 231.5q-32 79.5 -32 102.5t33 85t73 111.5t55.5 49.5t36.5 -7t28.5 -15t14.5 -26t19 -52.5t20 -54t14.5 -34t9.5 -21.5q8 -13 8 -24q0 -36 -33 -99.5t-72 -112t-55.5 -48.5t-39 7t-26.5 15
q-22 44 -54 123.5z" />
    <glyph glyph-name="uni25CC" unicode="&#x25cc;" horiz-adv-x="660" 
d="M301 516q-19 0 -31.5 12t-12.5 32t12.5 32t31.5 12t31.5 -12t12.5 -32t-12.5 -32t-31.5 -12zM458.5 514q-12.5 -13 -31 -13t-31.5 13t-13 31.5t12.5 31.5t32 13t31.5 -12.5t12 -31.5t-12.5 -32zM522 433q-19 0 -31.5 12.5t-12.5 31.5t12.5 32t31.5 13t31.5 -12.5
t12.5 -32t-12.5 -32t-31.5 -12.5zM603.5 327.5q-12.5 -12.5 -32 -12.5t-31.5 12.5t-12 31.5t12 31.5t31.5 12.5t32 -12.5t12.5 -31.5t-12.5 -31.5zM593.5 193.5q-12.5 -12.5 -31 -12.5t-31.5 12.5t-13 31.5t13 32t31.5 13t31 -13t12.5 -32t-12.5 -31.5zM489 83
q-19 0 -31.5 12.5t-12.5 31.5t12.5 31.5t31.5 12.5t32 -12.5t13 -31.5t-13 -31.5t-32 -12.5zM368 30q-20 0 -32 12t-12 32t12 32t32 12t32.5 -12.5t12.5 -31.5t-12.5 -31.5t-32.5 -12.5zM242 44q-19 0 -32 13t-13 32t13 32t32 13t31.5 -13t12.5 -32t-12.5 -32t-31.5 -13z
M171.5 133.5q-12.5 -12.5 -32 -12.5t-31.5 12.5t-12 31.5t12.5 31.5t31.5 12.5t31.5 -12.5t12.5 -31.5t-12.5 -31.5zM88 238q-19 0 -31.5 12t-12.5 31t12.5 32t31.5 13t31.5 -12.5t12.5 -32t-12.5 -31.5t-31.5 -12zM134 375.5q-13 -12.5 -32 -12.5t-32 12.5t-13 31.5
t13 31.5t32 12.5t32 -12.5t13 -31.5t-13 -31.5zM183 472q-19 0 -31.5 12.5t-12.5 32t12.5 32t31.5 12.5t31.5 -12.5t12.5 -32t-12.5 -32t-31.5 -12.5z" />
    <glyph glyph-name="uF0001" unicode="&#xf0001;" horiz-adv-x="0" 
 />
    <glyph glyph-name="uF0002" unicode="&#xf0002;" horiz-adv-x="333" 
 />
    </font>
</defs>
</svg>
